<?xml version="1.0" standalone="no"?>
<!DOCTYPE svg PUBLIC "-//W3C//DTD SVG 1.1//EN" "http://www.w3.org/Graphics/SVG/1.1/DTD/svg11.dtd" >
<svg xmlns="http://www.w3.org/2000/svg">
<metadata>
<json>
<![CDATA[
{
	"fontFamily": "fontisto-player",
	"majorVersion": 3,
	"minorVersion": 4,
	"description": "fontisto, iconic font and css toolkit",
	"copyright": "@kenangundogan",
	"designer": "Kenan Gündoğan",
	"designerURL": "http://www.kenangundogan.com",
	"license": "MIT",
	"licenseURL": "https://opensource.org/licenses/mit-license.html",
	"fontURL": "http://www.fontisto.com",
	"version": "Version 3.4",
	"fontId": "fontisto-player",
	"psName": "fontisto-player",
	"subFamily": "Regular",
	"fullName": "fontisto-player"
}
]]>
</json>
</metadata>
<defs>
<font id="fontisto-player" horiz-adv-x="1024">
<font-face units-per-em="1024" ascent="960" descent="-64" />
<missing-glyph horiz-adv-x="1024" />
<glyph unicode="&#x20;" horiz-adv-x="512" d="" />
<glyph unicode="&#xe9da;" glyph-name="backward" data-tags="backward" horiz-adv-x="1365" d="M21.803 383.19l712.32-462.336c27.989-18.219 62.336 5.803 62.336 43.52v285.227l506.539-328.747c27.989-18.219 62.336 5.803 62.336 43.52v924.544c0 37.717-34.347 61.739-62.336 43.52l-506.539-328.704v285.184c0 37.717-34.347 61.739-62.336 43.52l-712.32-462.293c-13.304-10.003-21.817-25.757-21.817-43.499s8.513-33.496 21.678-43.399l0.139-0.1z" />
<glyph unicode="&#xe9db;" glyph-name="eject" data-tags="eject" d="M23.284-85.368c-12.859 0-23.284 10.425-23.284 23.284v0 46.568c0.020 12.844 10.437 23.249 23.284 23.249 0 0 0 0 0 0h977.432c0 0 0 0 0 0 12.847 0 23.264-10.405 23.284-23.247v-46.57c0-12.859-10.425-23.284-23.284-23.284v0zM25.972 100.833c-14.785 1.335-26.283 13.67-26.283 28.689 0 6.006 1.839 11.583 4.984 16.198l-0.064-0.1 485.993 780.619c4.254 7.555 12.223 12.574 21.364 12.574s17.11-5.019 21.3-12.452l0.063-0.122 485.993-780.654c3.068-4.509 4.899-10.075 4.899-16.068 0-15-11.468-27.322-26.115-28.676l-0.113-0.008z" />
<glyph unicode="&#xe9dc;" glyph-name="equalizer" data-tags="equalizer" horiz-adv-x="1120" d="M960-85.333v334.72c-55.71 14.674-96.126 64.601-96.126 123.968s40.416 109.294 95.234 123.768l0.893 0.2v441.344h64v-441.344c55.71-14.674 96.126-64.601 96.126-123.968s-40.416-109.294-95.234-123.768l-0.893-0.2v-334.72zM544-85.333v548.064c-55.71 14.674-96.126 64.601-96.126 123.968s40.416 109.294 95.234 123.768l0.893 0.2v228h64v-228c55.71-14.674 96.126-64.601 96.126-123.968s-40.416-109.294-95.234-123.768l-0.893-0.2v-548.064zM96-85.333v164.064c-55.71 14.674-96.126 64.601-96.126 123.968s40.416 109.294 95.234 123.768l0.893 0.2v612h64v-612c55.71-14.674 96.126-64.601 96.126-123.968s-40.416-109.294-95.234-123.768l-0.893-0.2v-164.064z" />
<glyph unicode="&#xe9dd;" glyph-name="forward" data-tags="forward" horiz-adv-x="1365" d="M1343.531 470.102l-712.235 462.336c-28.032 18.219-62.421-5.803-62.421-43.52v-285.184l-506.496 328.533c-28.032 18.219-62.421-5.803-62.421-43.52v-924.288c0-37.717 34.347-61.739 62.421-43.52l506.496 328.747v-285.227c0-37.717 34.347-61.739 62.421-43.52l712.235 462.293c13.304 10.003 21.817 25.757 21.817 43.499s-8.513 33.496-21.678 43.399l-0.139 0.1z" />
<glyph unicode="&#xe9de;" glyph-name="headphone" data-tags="headphone" horiz-adv-x="878" d="M800.256 423.475c0.007-0.239 0.012-0.52 0.012-0.802 0-14.864-11.768-26.979-26.494-27.538l-0.051-0.002c-1.213 0.22-2.284 0.533-3.306 0.944l0.113-0.040c-21.531 33.287-58.228 55.166-100.076 55.807l-0.095 0.001c-69.134-3.010-124.042-59.788-124.042-129.391 0-1.862 0.039-3.715 0.117-5.559l-0.009 0.263v-268.047c-0.071-1.597-0.111-3.47-0.111-5.352 0-69.469 54.825-126.133 123.567-129.084l0.267-0.009h6.174c8.295 0.012 16.154 1.865 23.195 5.171l-0.335-0.142v-0.241c7.078 3.192 14.185 6.626 21.082 10.3 24.852 14.023 46.113 30.984 64.312 50.802l0.17 0.187c31.796 35.414 54.881 79.283 65.494 127.817l0.343 1.869c0.452 2.048 1.144 4.337 1.596 6.415 16.779 80.1 26.386 172.144 26.386 266.431 0 29.517-0.941 58.814-2.796 87.862l0.203-3.965c-2.022 127.641-49.922 243.719-127.883 332.829l0.515-0.601c0 0.241-0.241 0.241-0.452 0.452-17.148 18.691-35.537 35.628-55.256 50.933l-1.004 0.749c-18.914 14.926-40.185 28.671-62.709 40.334l-2.225 1.048c-54.375 28.825-118.872 45.749-187.322 45.749-0.078 0-0.155 0-0.233 0h0.012c-0.139 0-0.304 0-0.468 0-68.336 0-132.718-16.925-189.185-46.811l2.201 1.062c-24.783-12.957-46.040-26.689-65.917-42.116l0.983 0.734c-20.807-16.063-39.264-33.001-56.189-51.372l-0.282-0.31-0.452-0.452c-77.93-88.132-126.081-204.183-127.815-331.447l-0.004-0.359c-1.654-25.097-2.597-54.406-2.597-83.937 0-94.274 9.608-186.305 27.899-275.165l-1.509 8.773c0.513-2.614 1.065-4.769 1.72-6.879l-0.124 0.464c10.97-50.394 34.064-94.253 66.098-129.918l-0.231 0.261c18.369-20.005 39.629-36.966 63.202-50.322l1.28-0.667c5.803-3.411 12.734-6.863 19.901-9.862l1.181-0.438v0.241c6.709-3.141 14.563-4.99 22.845-5.030h6.188c69.036 3.127 123.822 59.856 123.822 129.381 0 1.781-0.036 3.554-0.107 5.317l0.008-0.253v267.565c0.069 1.58 0.108 3.433 0.108 5.296 0 69.603-54.908 126.381-123.771 129.381l-0.271 0.009c-41.87-0.653-78.491-22.535-99.643-55.332l-0.287-0.476c-1.144 0-2.289-0.904-3.433-0.904-14.778 0.56-26.545 12.675-26.545 27.539 0 0.282 0.004 0.563 0.013 0.843l-0.001-0.041c0 0.693 0.693 1.144 0.693 1.596 0.452 12.348 1.144 24.937 1.837 37.286 1.911 37.407 7.228 72.56 15.68 106.473l-0.802-3.802c13.62 58.699 38.711 110.128 72.942 154.089l-0.66-0.881c5.722 7.56 11.896 14.637 18.281 21.715 7.319 7.77 14.637 15.33 22.408 22.167 3.644 3.433 7.319 6.415 10.963 9.608 23.595 20.178 50.464 37.6 79.474 51.216l2.175 0.917c40.679 19.102 88.322 30.327 138.568 30.509h0.064c50.354-0.002 98.088-11.214 140.845-31.276l-2.032 0.857c31.185-14.534 58.054-31.956 82.138-52.541l-0.489 0.408c3.644-3.192 7.319-6.415 10.752-9.608 7.77-6.867 15.059-14.396 22.408-22.167 6.415-7.078 12.589-14.185 18.281-21.715 33.495-43.088 58.509-94.522 71.523-150.559l0.518-2.649c7.722-30.102 13.102-65.246 15.002-101.312l0.057-1.359c-0.008-0.809-0.013-1.765-0.013-2.723 0-12.181 0.749-24.187 2.203-35.975l-0.142 1.412c-0.452-0.241-0.452-0.693-0.452-1.596z" />
<glyph unicode="&#xe9df;" glyph-name="heart" data-tags="heart" horiz-adv-x="1170" d="M0 646.091c-0.019 1.237-0.030 2.696-0.030 4.158 0 159.305 129.143 288.448 288.448 288.448 1.462 0 2.922-0.011 4.379-0.033l-0.221 0.003c146.272 0 256-109.728 292.576-146.272 36.576 36.544 146.272 146.272 292.576 146.272 219.424 0 292.576-146.272 292.576-292.576 0-292.576-512-694.848-585.152-731.424-73.152 36.576-585.152 438.848-585.152 731.424z" />
<glyph unicode="&#xe9e0;" glyph-name="mic" data-tags="mic" horiz-adv-x="717" d="M358.4 221.867c113.053 0.137 204.663 91.747 204.8 204.787v307.213c0 113.108-91.692 204.8-204.8 204.8s-204.8-91.692-204.8-204.8v-307.2c0.137-113.053 91.747-204.663 204.787-204.8h0.013zM716.8 426.667v102.4c0 28.277-22.923 51.2-51.2 51.2s-51.2-22.923-51.2-51.2v-102.4c0-141.385-114.615-256-256-256s-256 114.615-256 256v0 102.4c0 28.277-22.923 51.2-51.2 51.2s-51.2-22.923-51.2-51.2v0-102.4c0.312-179.665 132.697-328.316 305.234-354.063l1.966-0.241v-55.296h-153.6c-28.277 0-51.2-22.923-51.2-51.2s22.923-51.2 51.2-51.2h409.6c28.277 0 51.2 22.923 51.2 51.2s-22.923 51.2-51.2 51.2h-153.6v55.296c174.503 25.988 306.888 174.639 307.2 354.271v0.033z" />
<glyph unicode="&#xe9e1;" glyph-name="music-note" data-tags="music-note" horiz-adv-x="788" d="M771.006 931.46c-6.316 4.509-14.193 7.209-22.7 7.209-4.729 0-9.262-0.834-13.462-2.363l0.274 0.087-472.611-168.013c-15.382-5.591-26.171-20.083-26.171-37.095 0-0.012 0-0.025 0-0.037v0.002-93.577c0-0.62 0-1.211 0-1.802v-452.436c-22.768 12.571-49.896 20.001-78.753 20.086h-0.026c-1.821 0.078-3.956 0.123-6.103 0.123-81.229 0-147.536-63.889-151.411-144.158l-0.013-0.348c3.873-80.629 70.186-144.535 151.426-144.535 2.146 0 4.281 0.045 6.405 0.133l-0.304-0.010c1.821-0.078 3.956-0.123 6.103-0.123 81.229 0 147.536 63.889 151.411 144.158l0.013 0.348v549.676l393.833 137.53v-382.844c-22.774 12.544-49.899 19.961-78.749 20.056h-0.029c-1.837 0.080-3.993 0.125-6.159 0.125-81.218 0-147.512-63.897-151.355-144.163l-0.013-0.345c3.857-80.627 70.164-144.536 151.398-144.536 2.156 0 4.301 0.045 6.435 0.134l-0.305-0.010c1.339-0.042 2.913-0.065 4.493-0.065 72.363 0 133.105 49.753 149.885 116.918l0.225 1.064c1.812 4.292 2.892 9.278 2.954 14.509v672.165c-0.011 13.239-6.548 24.948-16.568 32.085l-0.121 0.082z" />
<glyph unicode="&#xe9e2;" glyph-name="pause" data-tags="pause" horiz-adv-x="768" d="M204.823-85.295h-153.598c-28.261 0.022-51.165 22.926-51.187 51.184v921.59c0 28.277 22.912 51.203 51.185 51.225h153.6c28.261-0.022 51.165-22.926 51.187-51.184v-921.59c0-28.277-22.912-51.203-51.185-51.225h-0.002zM716.804-85.295h-153.598c-28.27 0-51.187 22.917-51.187 51.187v0 921.588c0 0.011 0 0.025 0 0.038 0 28.27 22.917 51.187 51.187 51.187h153.598c28.27 0 51.187-22.917 51.187-51.187v0-921.588c0-28.27-22.917-51.187-51.187-51.187v0z" />
<glyph unicode="&#xe9e3;" glyph-name="play-list" data-tags="play-list" horiz-adv-x="1182" d="M0-85.367v135.034h1181.551v-135.034zM0 252.219v135.034h1181.551v-135.034zM0 553.211v365.775c0.873 11.155 10.139 19.876 21.442 19.876 3.8 0 7.369-0.986 10.467-2.715l-0.109 0.056 361.96-182.297c6.744-3.238 11.317-10.014 11.317-17.858s-4.573-14.62-11.199-17.807l-0.118-0.051-361.96-182.128c-3.004-1.566-6.558-2.488-10.327-2.498h-0.003c-0.258-0.012-0.561-0.018-0.865-0.018-11.066 0-20.096 8.714-20.604 19.654l-0.002 0.046zM540.138 657.323v135.034h641.414v-135.034z" />
<glyph unicode="&#xe9e4;" glyph-name="play" data-tags="play" d="M0.038 888.94v-924.545c2.229-28.184 25.649-50.211 54.214-50.211 9.594 0 18.608 2.485 26.432 6.846l-0.276-0.141 914.869 460.794c17.066 8.179 28.642 25.316 28.642 45.158s-11.576 36.979-28.343 45.028l-0.3 0.13-914.869 460.794c-7.55 4.226-16.567 6.715-26.166 6.715-28.683 0-52.175-22.225-54.194-50.393l-0.010-0.175z" />
<glyph unicode="&#xe9e5;" glyph-name="player-settings" data-tags="player-settings" d="M918.227 505.816c-19.158 3.899-34.539 17.118-41.4 34.615l-0.132 0.382-25.992 63.247c-3.178 6.789-5.032 14.741-5.032 23.126 0 11.482 3.477 22.152 9.435 31.014l-0.126-0.199 42.165 56.23c4.592 6.546 7.339 14.678 7.339 23.452 0 9.951-3.533 19.076-9.412 26.191l0.056-0.069-46.17 46.291c-7.049 5.801-16.168 9.319-26.108 9.319-8.816 0-16.985-2.767-23.687-7.479l0.131 0.087-56.169-42.165c-8.65-5.871-19.322-9.374-30.811-9.374-8.39 0-16.344 1.867-23.468 5.209l0.339-0.143-63.247 25.992c-17.927 6.875-31.186 22.267-34.938 41.088l-0.059 0.354-9.758 69.602c-3.383 18.201-17.784 32.246-35.898 35.056l-0.243 0.031s-11.113 1.054-33.129 1.054-32.828-1.114-32.828-1.114c-18.455-2.741-32.974-16.781-36.399-34.756l-0.043-0.271-9.939-69.512c-3.872-19.146-17.106-34.513-34.615-41.312l-0.381-0.13-63.247-25.992c-6.784-3.189-14.734-5.050-23.118-5.050-11.491 0-22.165 3.496-31.018 9.481l0.196-0.125-56.23 42.165c-6.564 4.636-14.731 7.411-23.546 7.411-9.937 0-19.050-3.526-26.158-9.394l0.070 0.056-46.050-46.381c-5.804-7.039-9.324-16.149-9.324-26.082 0-8.791 2.757-16.938 7.454-23.623l-0.087 0.131 42.165-56.23c5.891-8.663 9.405-19.355 9.405-30.867 0-8.368-1.857-16.302-5.181-23.413l0.143 0.34-26.082-63.247c-6.919-17.897-22.29-31.135-41.084-34.936l-0.358-0.060-69.602-9.818c-18.199-3.506-32.19-18.015-34.878-36.206l-0.029-0.236s-1.235-10.903-1.235-32.828 1.144-32.858 1.144-32.858c2.722-18.447 16.759-32.962 34.727-36.37l0.27-0.043 69.512-9.909c19.162-3.871 34.55-17.087 41.401-34.585l0.131-0.381 26.082-63.247c3.173-6.77 5.025-14.701 5.025-23.065 0-11.514-3.509-22.207-9.517-31.070l0.124 0.195-42.165-56.23c-5.999-6.7-9.667-15.596-9.667-25.349 0-6.218 1.491-12.088 4.135-17.272l-0.1 0.216c7.469-9.246 28.883-32.075 28.943-32.166s7.288-6.656 15.992-14.667 44.454-19.155 58.549-8.674l56.2 42.165c8.651 5.85 19.316 9.338 30.796 9.338 8.395 0 16.354-1.866 23.485-5.205l-0.34 0.143 63.247-25.992c17.917-6.89 31.169-22.275 34.937-41.086l0.059-0.355 9.758-69.391c3.426-18.25 17.915-32.312 36.113-35.057l0.239-0.030s10.963-1.054 32.919-1.054 32.858 1.144 32.858 1.144c18.358 2.841 32.758 16.886 36.1 34.82l0.041 0.268 9.999 69.512c3.839 19.162 17.086 34.542 34.616 41.313l0.381 0.129 63.247 26.082c6.77 3.171 14.7 5.021 23.062 5.021 11.514 0 22.208-3.508 31.074-9.512l-0.195 0.125 56.23-42.165c6.56-4.595 14.706-7.343 23.495-7.343 9.967 0 19.108 3.534 26.239 9.417l-0.070-0.056 46.17 46.261c5.818 7.066 9.345 16.207 9.345 26.172 0 8.785-2.742 16.93-7.416 23.626l0.089-0.134-42.165 56.23c-5.832 8.663-9.309 19.333-9.309 30.815 0 8.385 1.854 16.337 5.175 23.469l-0.143-0.343 25.992 63.247c6.955 17.905 22.354 31.142 41.174 34.936l0.358 0.060 69.421 9.909c18.259 3.408 32.33 17.906 35.058 36.114l0.029 0.238s1.144 10.632 1.144 32.648-1.144 32.858-1.144 32.858c-2.771 18.482-16.877 33.005-34.909 36.371l-0.268 0.042zM511.91 298.667c-70.709 0-128.030 57.321-128.030 128.030s57.321 128.030 128.030 128.030c70.698 0 128.013-57.304 128.030-127.998v-0.002c0-0.009 0-0.020 0-0.030 0-70.709-57.321-128.030-128.030-128.030v0z" />
<glyph unicode="&#xe9e6;" glyph-name="podcast" data-tags="podcast" horiz-adv-x="859" d="M429.417 432.931c0.903-0.028 1.965-0.044 3.031-0.044 56.59 0 102.675 44.978 104.455 101.136l0.004 0.163c-1.784 56.321-47.869 101.299-104.459 101.299-1.066 0-2.128-0.016-3.186-0.048l0.155 0.004c-0.903 0.028-1.965 0.044-3.031 0.044-56.59 0-102.675-44.978-104.455-101.136l-0.004-0.163c1.784-56.321 47.869-101.299 104.459-101.299 1.066 0 2.128 0.016 3.186 0.048l-0.155-0.004zM429.417 787.175c-2.253 0.070-4.904 0.11-7.563 0.11-141.398 0-256.548-112.375-261.016-252.687l-0.010-0.411c0.265-68.739 28.835-130.755 74.652-175.037l0.069-0.067c14.594 22.159 33.566 40.256 55.804 53.419l0.787 0.431c-31.334 30.906-50.801 73.773-50.989 121.188v0.036c3.139 98.557 83.787 177.259 182.817 177.259 1.863 0 3.719-0.028 5.569-0.083l-0.271 0.006c1.588 0.049 3.455 0.078 5.329 0.078 99.020 0 179.662-78.686 182.809-176.941l0.007-0.289c-0.191-47.555-19.743-90.506-51.176-121.411l-0.024-0.024c23.099-13.626 42.126-31.787 56.347-53.392l0.395-0.639c46.097 44.375 74.813 106.526 75.083 175.385v0.051c-4.477 140.723-119.628 253.098-261.026 253.098-2.659 0-5.31-0.040-7.95-0.119l0.387 0.009zM429.417 938.637c-237.176 0.030-429.417-181.067-429.417-404.45 1.642-147.521 82.928-275.688 202.818-343.692l1.982-1.035c-2.5 16.73-3.954 36.076-4.006 55.752v0.056c0.222 13.167 1.67 25.861 4.235 38.145l-0.229-1.311c-75.71 58.886-124.136 149.762-124.807 251.975l-0.001 0.11c0 181.73 156.401 329.065 349.365 329.065s349.365-147.336 349.365-329.065c-0.676-102.542-49.302-193.589-124.556-251.93l-0.733-0.547c2.335-10.818 3.813-23.357 4.092-36.191l0.004-0.222c-0.056-19.864-1.532-39.333-4.332-58.372l0.266 2.203c122.162 68.983 203.672 197.318 205.31 344.828l0.002 0.229c0 223.383-192.271 404.48-429.417 404.48zM429.417 382.274c-1.241 0.038-2.701 0.060-4.166 0.060-77.797 0-141.157-61.813-143.646-139.006l-0.006-0.228c0-76.89 66.259-328.282 147.817-328.282s147.817 251.543 147.817 328.282c-2.462 77.447-65.835 139.294-143.653 139.294-1.464 0-2.923-0.022-4.377-0.065l0.213 0.005z" />
<glyph unicode="&#xe9e7;" glyph-name="random" data-tags="random" horiz-adv-x="1382" d="M1065.932 574.332v106.021h-209.162l-156.67-253.667-89.548-145.649-138.238-224.253c-13.907-21.768-37.925-36.006-65.272-36.057h-407.043v152.254h364.296l156.708 253.706 89.548 145.649 138.238 224.253c13.863 21.725 37.802 35.951 65.071 36.057h251.917v106.021l316.45-182.167-316.45-182.167zM550.496 669.179l-26.88-43.622-62.63-101.989-96.652 156.785h-364.296v152.254h407.035c27.355-0.051 51.372-14.289 65.093-35.747l0.186-0.31 78.335-127.371zM1065.932-85.333v106.021h-251.901c-27.285 0.106-51.224 14.332-64.901 35.746l-0.186 0.311-78.335 127.371 26.88 43.622 62.63 101.989 96.613-156.785h209.162v106.021l316.45-182.167-316.45-182.167z" />
<glyph unicode="&#xe9e8;" glyph-name="record" data-tags="record" d="M1024 426.686c0 0.011 0 0.025 0 0.038 0 282.759-229.222 511.981-511.981 511.981v0c-282.759 0-511.981-229.222-511.981-511.981v0c0-0.011 0-0.025 0-0.038 0-282.759 229.222-511.981 511.981-511.981v0c282.759 0 511.981 229.222 511.981 511.981v0z" />
<glyph unicode="&#xe9e9;" glyph-name="star" data-tags="star" horiz-adv-x="1016" d="M834.343-60.209l-284.329 140.172c-6.957 3.498-15.16 5.546-23.842 5.546-10.023 0-19.408-2.729-27.453-7.485l0.251 0.137-273.76-159.994c-3.683-2.123-8.099-3.375-12.809-3.375-14.354 0-25.99 11.636-25.99 25.99 0 1.387 0.109 2.749 0.318 4.077l-0.019-0.147 42.415 321.789c0.286 2.077 0.45 4.477 0.45 6.915 0 15.517-6.618 29.488-17.186 39.244l-0.036 0.033-195.028 181.201c-10.562 9.869-17.144 23.882-17.144 39.432 0 26.667 19.359 48.813 44.79 53.151l0.319 0.045 255.428 47.267c17.984 3.34 32.639 15.135 39.885 31.020l0.139 0.341 106.281 241.636c8.725 18.938 27.542 31.847 49.374 31.847 20.472 0 38.293-11.351 47.513-28.102l0.141-0.28 122.915-233.423c8.393-15.582 23.791-26.453 41.862-28.429l0.241-0.021 257.923-29.074c27.607-2.601 49.039-25.663 49.039-53.73 0-14.181-5.471-27.083-14.416-36.713l0.031 0.034-182.206-194.647c-8.999-9.571-14.529-22.495-14.529-36.711 0-3.736 0.382-7.383 1.109-10.903l-0.060 0.347 64.871-317.977c0.403-1.715 0.633-3.683 0.633-5.706 0-14.373-11.652-26.025-26.025-26.025-4.058 0-7.9 0.929-11.323 2.586l0.155-0.068z" />
<glyph unicode="&#xe9ea;" glyph-name="step-backwrad" data-tags="step-backwrad" horiz-adv-x="973" d="M900.622-79.151l-798.211 447.738v-428.308c0-0.023 0-0.050 0-0.077 0-14.103-11.433-25.536-25.536-25.536-0.027 0-0.054 0-0.081 0h-51.183c-0.023 0-0.050 0-0.077 0-14.103 0-25.536 11.433-25.536 25.536 0 0.027 0 0.054 0 0.081v-0.004 972.775c0 0.011 0 0.025 0 0.038 0 14.124 11.45 25.574 25.574 25.574 0.014 0 0.027 0 0.041 0h51.185c0.011 0 0.025 0 0.038 0 14.124 0 25.574-11.45 25.574-25.574 0-0.014 0-0.027 0-0.041v0.002-428.308l798.211 447.7c6.763 3.779 14.838 6.004 23.433 6.004 26.912 0 48.729-21.817 48.729-48.729 0-0.343-0.004-0.684-0.011-1.025l0.001 0.051v-924.353c0.003-0.195 0.004-0.425 0.004-0.655 0-27.049-21.798-49.006-48.786-49.264h-0.025c-8.608 0.083-16.648 2.439-23.571 6.496l0.224-0.122z" />
<glyph unicode="&#xe9eb;" glyph-name="step-forward" data-tags="step-forward" horiz-adv-x="973" d="M0-35.606v924.353c-0.007 0.303-0.011 0.66-0.011 1.018 0 26.891 21.8 48.691 48.691 48.691 8.596 0 16.672-2.228 23.682-6.137l-0.247 0.127 798.288-447.7v428.308c0 0 0 0 0 0 0 14.132 11.445 25.591 25.572 25.612h51.189c14.145 0 25.612-11.467 25.612-25.612v0-972.775c0-0.011 0-0.025 0-0.038 0-14.124-11.45-25.574-25.574-25.574-0.014 0-0.027 0-0.041 0h-51.185c0 0 0 0 0 0-14.124 0-25.574 11.45-25.574 25.574 0 0.013 0 0.027 0 0.040v-0.002 428.308l-798.288-447.738c-6.723-3.879-14.785-6.172-23.382-6.182h-0.003c-26.978 0.303-48.731 22.243-48.731 49.264 0 0.163 0.001 0.326 0.002 0.489v-0.025z" />
<glyph unicode="&#xe9ec;" glyph-name="stop" data-tags="stop" d="M910.251-85.333h-796.416c-62.836 0.024-113.768 50.956-113.792 113.79v796.461c0.049 62.817 50.971 113.725 113.79 113.749h796.461c62.784-0.073 113.658-50.962 113.707-113.745v-796.464c-0.024-62.836-50.956-113.768-113.79-113.792h-0.002z" />
<glyph unicode="&#xe9ed;" glyph-name="volume-down" data-tags="volume-down" horiz-adv-x="1304" d="M677.605 933.012l-375.090-215.698v-581.328l375.090-215.698c30.964-17.768 67.059 8.622 67.059 48.872v914.946c0 40.319-36.13 66.71-67.059 48.872zM255.983 694.309l-210.183-0.419c-25.846-2.414-45.918-23.998-45.918-50.271 0-1.215 0.043-2.42 0.127-3.613l-0.009 0.16v-437.576c-0.083-1.079-0.131-2.336-0.131-3.604 0-25.99 19.918-47.328 45.321-49.582l0.19-0.014h210.567v544.919zM1121.673 425.236c0-0.115 0-0.251 0-0.386 0-37.388-11.303-72.135-30.679-101.012l0.413 0.653c-19.053-29.887-46.474-52.954-78.954-66.165l-1.125-0.405c-4.795-2.222-10.408-3.518-16.323-3.518-0.521 0-1.039 0.010-1.555 0.030l0.074-0.002c-0.15-0.002-0.328-0.003-0.505-0.003-12.335 0-23.495 5.034-31.537 13.159l-0.004 0.004c-8.335 7.928-13.519 19.102-13.519 31.486 0 0.319 0.003 0.638 0.010 0.956l-0.001-0.047c-0.010 0.326-0.016 0.71-0.016 1.095 0 9.196 3.232 17.637 8.623 24.248l-0.055-0.070c5.838 6.973 12.647 12.882 20.273 17.597l0.358 0.206q12.113 7.47 24.191 16.372c8.693 6.788 15.668 15.361 20.445 25.199l0.185 0.423c5.375 11.809 8.508 25.611 8.508 40.145s-3.133 28.335-8.76 40.767l0.252-0.622c-4.963 10.262-11.938 18.835-20.474 25.504l-0.157 0.118q-12.113 8.902-24.191 16.372c-7.984 4.921-14.793 10.831-20.525 17.673l-0.106 0.13c-5.336 6.542-8.568 14.983-8.568 24.179 0 0.385 0.006 0.769 0.017 1.151l-0.001-0.056c-0.006 0.27-0.010 0.589-0.010 0.909 0 12.384 5.184 23.558 13.501 31.469l0.018 0.017c8.045 8.129 19.205 13.163 31.54 13.163 0.178 0 0.355-0.001 0.532-0.003h-0.027c0.442 0.018 0.96 0.028 1.48 0.028 5.915 0 11.528-1.296 16.569-3.62l-0.246 0.102c33.738-13.26 61.235-36.32 79.681-65.647l0.399-0.679c18.966-28.403 30.265-63.329 30.265-100.894 0-0.009 0-0.018 0-0.027v0.001zM1303.93 425.236c0.002-0.475 0.004-1.036 0.004-1.599 0-74.37-22.601-143.462-61.31-200.781l0.81 1.273c-38.693-59.551-93.336-105.825-157.899-133.319l-2.295-0.869c-5.268-2.153-11.378-3.429-17.778-3.491h-0.025c-0.225-0.004-0.49-0.006-0.755-0.006-12.541 0-23.874 5.175-31.979 13.506l-0.010 0.010c-8.333 7.983-13.511 19.201-13.511 31.629 0 0.147 0.001 0.293 0.002 0.439v-0.022c0 0.042 0 0.091 0 0.14 0 18.726 11.395 34.791 27.63 41.639l0.297 0.111c21.017 10.355 38.735 20.803 55.609 32.392l-1.501-0.974c68.068 50.1 111.745 129.91 111.745 219.922s-43.677 169.822-110.993 219.394l-0.752 0.528c-15.373 10.615-33.092 21.063-51.543 30.26l-2.565 1.157c-16.532 6.959-27.927 23.024-27.927 41.75 0 0.049 0 0.098 0 0.147v-0.008c0.349 25.018 20.537 45.206 45.522 45.555h0.033c6.66-0.012 13.017-1.292 18.848-3.612l-0.346 0.122c66.858-28.363 121.502-74.637 159.366-132.83l0.828-1.357c37.898-56.046 60.5-125.138 60.5-199.508 0-0.562-0.001-1.124-0.004-1.685v0.087z" />
<glyph unicode="&#xe9ee;" glyph-name="volume-mute" data-tags="volume-mute" horiz-adv-x="745" d="M677.745 933.012l-375.090-215.698v-581.328l375.090-215.698c30.964-17.768 67.059 8.622 67.059 48.872v914.946c0 40.319-36.13 66.71-67.059 48.872zM256.122 694.309l-210.183-0.419c-25.846-2.414-45.918-23.998-45.918-50.271 0-1.215 0.043-2.42 0.127-3.613l-0.009 0.16v-437.576c-0.083-1.079-0.131-2.336-0.131-3.604 0-25.99 19.918-47.328 45.321-49.582l0.19-0.014h210.567v544.919z" />
<glyph unicode="&#xe9ef;" glyph-name="volume-off" data-tags="volume-off" horiz-adv-x="1246" d="M677.675 933.012l-375.159-215.698v-581.328l375.159-215.698c30.894-17.768 67.024 8.622 67.024 48.872v914.946c0 40.319-36.13 66.71-67.024 48.872zM256.017 699.091l-210.183-0.419c-25.846-2.414-45.918-23.998-45.918-50.271 0-1.215 0.043-2.42 0.127-3.613l-0.009 0.16v-437.576c-0.083-1.079-0.131-2.336-0.131-3.604 0-25.99 19.918-47.328 45.321-49.582l0.19-0.014h210.602v544.919zM1245.703 575.656l-37.841 37.736-148.954-148.954-148.989 148.954-37.736-37.736 148.954-148.954-148.954-148.989 37.736-37.841 148.954 148.954 148.989-148.954 37.841 37.841-149.058 148.954z" />
<glyph unicode="&#xe9f0;" glyph-name="volume-up" data-tags="volume-up" horiz-adv-x="1486" d="M677.605 933.012l-375.090-215.698v-581.328l375.090-215.698c30.964-17.768 67.059 8.622 67.059 48.872v914.946c0 40.319-36.13 66.71-67.059 48.872zM255.983 694.309l-210.183-0.419c-25.846-2.414-45.918-23.998-45.918-50.271 0-1.215 0.043-2.42 0.127-3.613l-0.009 0.16v-437.576c-0.083-1.079-0.131-2.336-0.131-3.604 0-25.99 19.918-47.328 45.321-49.582l0.19-0.014h210.567v544.919zM1121.673 432.497c0-0.115 0-0.251 0-0.386 0-37.388-11.303-72.135-30.679-101.012l0.413 0.653c-19.053-29.887-46.474-52.954-78.954-66.165l-1.125-0.405c-4.795-2.222-10.408-3.518-16.323-3.518-0.521 0-1.039 0.010-1.555 0.030l0.074-0.002c-0.15-0.002-0.328-0.003-0.505-0.003-12.335 0-23.495 5.034-31.537 13.159l-0.004 0.004c-8.335 7.928-13.519 19.102-13.519 31.486 0 0.319 0.003 0.638 0.010 0.956l-0.001-0.047c-0.010 0.326-0.016 0.71-0.016 1.095 0 9.196 3.232 17.637 8.623 24.248l-0.055-0.070c5.838 6.973 12.647 12.882 20.273 17.597l0.358 0.206q12.113 7.47 24.191 16.372c8.693 6.788 15.668 15.361 20.445 25.199l0.185 0.423c5.375 11.809 8.508 25.611 8.508 40.145s-3.133 28.335-8.76 40.767l0.252-0.622c-4.963 10.262-11.938 18.835-20.474 25.504l-0.157 0.118q-12.113 8.902-24.191 16.372c-7.984 4.921-14.793 10.831-20.525 17.673l-0.106 0.13c-5.336 6.542-8.568 14.983-8.568 24.179 0 0.385 0.006 0.769 0.017 1.151l-0.001-0.056c-0.006 0.27-0.010 0.589-0.010 0.909 0 12.384 5.184 23.558 13.501 31.469l0.018 0.017c8.045 8.129 19.205 13.163 31.54 13.163 0.178 0 0.355-0.001 0.532-0.003h-0.027c0.442 0.018 0.96 0.028 1.48 0.028 5.915 0 11.528-1.296 16.569-3.62l-0.246 0.102c33.738-13.26 61.235-36.32 79.681-65.647l0.399-0.679c18.966-28.403 30.265-63.329 30.265-100.894 0-0.009 0-0.018 0-0.027v0.001zM1303.93 432.497c0.002-0.475 0.004-1.036 0.004-1.599 0-74.37-22.601-143.462-61.31-200.781l0.81 1.273c-38.693-59.551-93.336-105.825-157.899-133.319l-2.295-0.869c-5.268-2.153-11.378-3.429-17.778-3.491h-0.025c-0.225-0.004-0.49-0.006-0.755-0.006-12.541 0-23.874 5.175-31.979 13.506l-0.010 0.010c-8.333 7.983-13.511 19.201-13.511 31.629 0 0.147 0.001 0.293 0.002 0.439v-0.022c0 0.042 0 0.091 0 0.14 0 18.726 11.395 34.791 27.63 41.639l0.297 0.111c21.017 10.355 38.735 20.803 55.609 32.392l-1.501-0.974c68.068 50.1 111.745 129.91 111.745 219.922s-43.677 169.822-110.993 219.394l-0.752 0.528c-15.373 10.615-33.092 21.063-51.543 30.26l-2.565 1.157c-16.532 6.959-27.927 23.024-27.927 41.75 0 0.049 0 0.098 0 0.147v-0.008c0.349 25.018 20.537 45.206 45.522 45.555h0.033c6.66-0.012 13.017-1.292 18.848-3.612l-0.346 0.122c66.858-28.363 121.502-74.637 159.366-132.83l0.828-1.357c37.898-56.046 60.5-125.138 60.5-199.508 0-0.562-0.001-1.124-0.004-1.685v0.087zM1486.186 432.497c-0.332-223.975-134.887-416.442-327.522-501.299l-3.513-1.38c-5.485-2.199-11.842-3.479-18.497-3.491h-0.005c-25.018 0.349-45.206 20.537-45.555 45.522v0.033c0.73 18.539 11.83 34.321 27.633 41.765l0.294 0.124c4.263 2.358 9.534 4.865 14.955 7.084l1.068 0.387c6.489 2.606 11.761 5.113 16.865 7.889l-0.842-0.419c22.66 12.238 41.739 24.266 59.967 37.402l-1.6-1.097c57.286 42.379 103.444 96.497 135.51 159.034l1.191 2.557c30.969 59.872 49.127 130.69 49.127 205.75s-18.159 145.878-50.323 208.302l1.195-2.553c-33.257 65.093-79.415 119.212-135.472 160.721l-1.229 0.869c-16.627 12.038-35.706 24.066-55.536 34.89l-2.831 1.415c-4.262 2.357-9.533 4.864-14.954 7.083l-1.069 0.387c-6.488 2.605-11.76 5.112-16.864 7.889l0.841-0.419c-16.096 7.569-27.197 23.351-27.924 41.798l-0.003 0.092c0.193 25.126 20.421 45.463 45.485 45.834h0.035c6.66-0.012 13.017-1.292 18.848-3.612l-0.346 0.122c196.148-86.237 330.704-278.704 331.035-502.637v-0.043z" />
<glyph unicode="&#xe9f1;" glyph-name="circle-o-notch" data-tags="circle-o-notch" horiz-adv-x="1029" d="M1029.359 429.364c0.001-0.377 0.002-0.823 0.002-1.27 0-71.889-15.071-140.258-42.226-202.12l1.265 3.232c-52.375-124.293-149.285-221.204-270.263-272.334l-3.316-1.244c-59.046-25.797-127.849-40.808-200.158-40.808s-141.112 15.011-203.463 42.086l3.305-1.278c-124.28 52.382-221.178 149.291-272.3 270.262l-1.244 3.316c-25.775 59.205-40.771 128.175-40.771 200.648 0 86.567 21.395 168.137 59.186 239.71l-1.349-2.802c75.729 144.008 213.912 246.37 377.548 271.543l2.868 0.363v-135.817c-175.183-36.248-304.986-189.271-304.986-372.611 0-53.798 11.176-104.985 31.334-151.367l-0.95 2.456c38.965-92.057 110.763-163.855 200.358-201.892l2.462-0.929c43.65-19.204 94.538-30.382 148.036-30.382s104.386 11.178 150.455 31.325l-2.418-0.943c92.057 38.965 163.855 110.763 201.892 200.358l0.929 2.462c19.019 43.782 30.084 94.778 30.084 148.359 0 183.379-129.602 336.488-302.207 372.729l-2.48 0.436v135.817c249.537-38.354 438.409-251.538 438.409-508.835 0-0.165 0-0.33 0-0.494v0.026z" />
</font>
</defs>
</svg>
