<?xml version="1.0" standalone="no"?>
<!DOCTYPE svg PUBLIC "-//W3C//DTD SVG 1.1//EN" "http://www.w3.org/Graphics/SVG/1.1/DTD/svg11.dtd" >
<svg xmlns="http://www.w3.org/2000/svg">
<metadata>
<json>
<![CDATA[
{
	"fontFamily": "fontisto-editors",
	"majorVersion": 3,
	"minorVersion": 4,
	"description": "fontisto, iconic font and css toolkit",
	"copyright": "@kenangundogan",
	"designer": "Kenan Gündoğan",
	"designerURL": "http://www.kenangundogan.com",
	"license": "MIT",
	"licenseURL": "https://opensource.org/licenses/mit-license.html",
	"fontURL": "http://www.fontisto.com",
	"version": "Version 3.4",
	"fontId": "fontisto-editors",
	"psName": "fontisto-editors",
	"subFamily": "Regular",
	"fullName": "fontisto-editors"
}
]]>
</json>
</metadata>
<defs>
<font id="fontisto-editors" horiz-adv-x="1024">
<font-face units-per-em="1024" ascent="960" descent="-64" />
<missing-glyph horiz-adv-x="1024" />
<glyph unicode="&#x20;" horiz-adv-x="512" d="" />
<glyph unicode="&#xea0e;" glyph-name="bold" data-tags="bold" horiz-adv-x="905" d="M905.406 636.134c-0.208 167.039-135.595 302.387-302.628 302.533h-509.694c-51.409 0-93.084-41.675-93.084-93.084s41.675-93.084 93.084-93.084v0h39.543v-651.626h-39.543c-51.409 0-93.084-41.675-93.084-93.084s41.675-93.084 93.084-93.084h509.679c0.044 0 0.096 0 0.148 0 167.004 0 302.387 135.383 302.387 302.387 0 81.421-32.18 155.327-84.516 209.691l0.092-0.096c52.304 54.148 84.532 127.979 84.532 209.339 0 0.039 0 0.077 0 0.116v-0.006zM602.873 519.77h-284.040v232.729h283.931c64.266 0 116.364-52.098 116.364-116.364s-52.098-116.364-116.364-116.364v0zM602.873 100.872h-284.040v232.692h283.931c64.266 0 116.364-52.098 116.364-116.364s-52.098-116.364-116.364-116.364v0z" />
<glyph unicode="&#xea0f;" glyph-name="broken-link" data-tags="broken-link" d="M647.858 75.152c-26.018 0-47.11-21.092-47.11-47.11v0-66.339c-0.012-0.393-0.018-0.856-0.018-1.32 0-26.018 21.092-47.11 47.11-47.11s47.11 21.092 47.11 47.11c0 0.464-0.007 0.927-0.020 1.387l0.002-0.068v66.339c0 26.005-21.071 47.089-47.071 47.11h-0.002zM976.964 337.919h-66.339c-25.444-0.735-45.79-21.538-45.79-47.092s20.346-46.356 45.723-47.090l0.068-0.002h66.339c25.444 0.735 45.79 21.538 45.79 47.092s-20.346 46.356-45.723 47.090l-0.068 0.002zM866.954 138.311c-8.353 7.675-19.542 12.38-31.83 12.38-26.018 0-47.11-21.092-47.11-47.11 0-12.288 4.704-23.477 12.411-31.864l-0.031 0.034 46.888-46.888c8.642-9.406 21-15.28 34.731-15.28 26.018 0 47.11 21.092 47.11 47.11 0 13.73-5.874 26.089-15.246 34.7l-0.034 0.031zM376.179 778.145c26.018 0 47.11 21.092 47.11 47.11v0 66.302c-0.735 25.444-21.538 45.79-47.092 45.79s-46.356-20.346-47.090-45.723l-0.002-0.068v-66.302c0-26.005 21.071-47.089 47.071-47.11h0.002zM113.412 515.415c0.393-0.012 0.856-0.018 1.32-0.018 26.018 0 47.11 21.092 47.11 47.11s-21.092 47.11-47.11 47.11c-0.464 0-0.927-0.007-1.387-0.020l0.068 0.002h-66.302c-25.444-0.735-45.79-21.538-45.79-47.092s20.346-46.356 45.723-47.090l0.068-0.002zM157.083 714.986c8.642-9.406 21-15.28 34.731-15.28 26.018 0 47.11 21.092 47.11 47.11 0 13.73-5.874 26.089-15.246 34.7l-0.034 0.031-46.888 46.888c-8.642 9.406-21 15.28-34.731 15.28-26.018 0-47.11-21.092-47.11-47.11 0-13.73 5.874-26.089 15.246-34.7l0.034-0.031zM611.915 193.556c7.675 8.353 12.38 19.542 12.38 31.83 0 26.018-21.092 47.11-47.11 47.11-12.288 0-23.477-4.704-31.864-12.411l0.034 0.031-133.121-133.121c-25.141-23.393-58.963-37.751-96.14-37.751-78.034 0-141.294 63.259-141.294 141.294 0 37.176 14.358 70.999 37.831 96.226l-0.080-0.086 133.121 133.121c9.406 8.642 15.28 21 15.28 34.731 0 26.018-21.092 47.11-47.11 47.11-13.73 0-26.089-5.874-34.7-15.246l-0.031-0.034-133.121-133.121c-42.616-42.614-68.975-101.485-68.975-166.513 0-130.015 105.37-235.42 235.371-235.477h0.006c0.162 0 0.353-0.001 0.544-0.001 64.82 0 123.482 26.364 165.848 68.955l0.010 0.010zM878.306 793.084c-42.376 42.601-101.038 68.965-165.858 68.965-0.191 0-0.382 0-0.573-0.001h0.030c-0.162 0-0.353 0.001-0.544 0.001-64.82 0-123.482-26.364-165.848-68.955l-133.131-133.131c-9.406-8.642-15.28-21-15.28-34.731 0-26.018 21.092-47.11 47.11-47.11 13.73 0 26.089 5.874 34.7 15.246l0.031 0.034 133.121 133.121c25.877 27.812 62.685 45.154 103.543 45.154 78.034 0 141.294-63.259 141.294-141.294 0-40.858-17.342-77.666-45.068-103.463l-0.086-0.080-133.121-133.121c-9.406-8.642-15.28-21-15.28-34.731 0-26.018 21.092-47.11 47.11-47.11 13.73 0 26.089 5.874 34.7 15.246l0.031 0.034 133.121 133.121c42.488 42.631 68.757 101.449 68.757 166.402s-26.269 123.771-68.764 166.408l0.006-0.006z" />
<glyph unicode="&#xea10;" glyph-name="center-align" data-tags="center-align" horiz-adv-x="1252" d="M56.906 824.899h1137.723c0.475-0.014 1.034-0.022 1.594-0.022 31.428 0 56.906 25.478 56.906 56.906s-25.478 56.906-56.906 56.906c-0.561 0-1.119-0.008-1.676-0.024l0.082 0.002h-1137.723c-30.735-0.888-55.312-26.016-55.312-56.884s24.577-55.995 55.23-56.882l0.082-0.002zM208.597 711.131c-0.475 0.014-1.034 0.022-1.594 0.022-31.428 0-56.906-25.478-56.906-56.906s25.478-56.906 56.906-56.906c0.561 0 1.119 0.008 1.676 0.024l-0.082-0.002h834.342c30.735 0.888 55.312 26.016 55.312 56.884s-24.577 55.995-55.23 56.882l-0.082 0.002zM1194.629 483.551h-1137.723c-30.735-0.888-55.312-26.016-55.312-56.884s24.577-55.995 55.23-56.882l0.082-0.002h1137.723c30.735 0.888 55.312 26.016 55.312 56.884s-24.577 55.995-55.23 56.882l-0.082 0.002zM1194.629 28.48h-1137.723c-30.735-0.888-55.312-26.016-55.312-56.884s24.577-55.995 55.23-56.882l0.082-0.002h1137.723c30.735 0.888 55.312 26.016 55.312 56.884s-24.577 55.995-55.23 56.882l-0.082 0.002zM1042.939 142.247c30.735 0.888 55.312 26.016 55.312 56.884s-24.577 55.995-55.23 56.882l-0.082 0.002h-834.342c-30.735-0.888-55.312-26.016-55.312-56.884s24.577-55.995 55.23-56.882l0.082-0.002z" />
<glyph unicode="&#xea11;" glyph-name="close" data-tags="close" d="M873.793 788.826c-92.661 92.647-220.663 149.95-362.049 149.95-282.799 0-512.054-229.254-512.054-512.054 0-141.413 57.325-269.438 150.004-362.103l0.001-0.001c92.661-92.647 220.663-149.95 362.049-149.95 282.799 0 512.054 229.254 512.054 512.054 0 141.413-57.325 269.438-150.004 362.103l-0.001 0.001zM808.009 130.584c-75.812-75.812-180.544-122.702-296.229-122.702-231.369 0-418.931 187.562-418.931 418.931 0 115.685 46.89 220.417 122.702 296.229v0c75.807 75.807 180.533 122.694 296.21 122.694 231.355 0 418.905-187.55 418.905-418.905 0-115.677-46.888-220.404-122.694-296.21v0zM577.583 426.685l164.46 164.46c7.586 8.256 12.235 19.314 12.235 31.459 0 25.715-20.846 46.56-46.56 46.56-12.144 0-23.203-4.65-31.492-12.266l0.034 0.030-164.46-164.46-164.46 164.46c-8.256 7.586-19.314 12.235-31.459 12.235-25.715 0-46.56-20.846-46.56-46.56 0-12.144 4.65-23.203 12.266-31.492l-0.030 0.034 164.46-164.46-164.46-164.46c-9.296-8.541-15.102-20.755-15.102-34.325 0-25.715 20.846-46.56 46.56-46.56 13.57 0 25.784 5.805 34.295 15.068l0.030 0.034 164.46 164.46 164.46-164.46c8.541-9.296 20.755-15.102 34.325-15.102 25.715 0 46.56 20.846 46.56 46.56 0 13.57-5.805 25.784-15.068 34.295l-0.034 0.030z" />
<glyph unicode="&#xea12;" glyph-name="columns" data-tags="columns" horiz-adv-x="1252" d="M1194.682 938.667h-1137.773c-31.43 0-56.909-25.479-56.909-56.909v0-910.227c0-31.43 25.479-56.909 56.909-56.909v0h1137.773c31.43 0 56.909 25.479 56.909 56.909v0 910.227c0 31.43-25.479 56.909-56.909 56.909v0zM113.683 597.304h455.225v-568.864h-455.136zM682.682 28.44v568.864h455.136v-568.864z" />
<glyph unicode="&#xea13;" glyph-name="copy" data-tags="copy" horiz-adv-x="900" d="M899.924 364.593c-0.003 11.228-4.005 21.521-10.66 29.532l0.061-0.076v0.219q-1.279 1.572-2.741 2.997l-0.365 0.402c-0.402 0.402-0.804 0.841-1.243 1.243l-171.148 171.148v322.049c0 0 0 0 0 0 0 25.715-20.846 46.56-46.56 46.56-0.039 0-0.077 0-0.116 0h-620.592c-25.715 0-46.56-20.846-46.56-46.56v0-744.711c0-25.715 20.846-46.56 46.56-46.56v0h139.645v-139.645c0-25.715 20.846-46.56 46.56-46.56v0h620.562c25.715 0 46.56 20.846 46.56 46.56v0 402.013c0 0.621 0.037 0.987 0.037 1.389zM558.542 593.557l182.404-182.404h-182.404zM93.084 193.956v651.626h527.514v-182.441l-75.688 75.688c-0.95 0.95-1.937 1.827-2.96 2.704l-0.987 0.767-2.266 1.718-1.096 0.95c-0.804 0.548-1.645 1.023-2.485 1.498l-1.169 0.512c-1.133 0.585-2.266 1.133-3.435 1.645l-1.462 0.585-2.412 0.877-1.645 0.512-2.668 0.694-1.243 0.292c-1.279 0.256-2.595 0.439-3.91 0.585h-1.243c-1.060 0-2.156 0-3.253 0h-279.947c-25.715 0-46.56-20.846-46.56-46.56v0-511.653zM279.253 7.788v651.59h186.169v-294.785c0.021-25.699 20.859-46.524 46.56-46.524 0.013 0 0.026 0 0.039 0h294.783v-310.317z" />
<glyph unicode="&#xea14;" glyph-name="eraser" data-tags="eraser" horiz-adv-x="1126" d="M1075.176 17.099h-388.382l424.603 424.603c9.248 9.265 14.967 22.055 14.967 36.181s-5.719 26.916-14.967 36.182l-409.607 409.607c-9.265 9.248-22.055 14.967-36.181 14.967s-26.916-5.719-36.182-14.967l-614.431-614.351c-9.248-9.265-14.967-22.055-14.967-36.181s5.719-26.916 14.967-36.182l307.215-307.336c9.259-9.262 22.050-14.992 36.18-14.995h716.785c0.427-0.013 0.93-0.020 1.435-0.020 28.286 0 51.216 22.93 51.216 51.216s-22.93 51.216-51.216 51.216c-0.505 0-1.007-0.007-1.508-0.022l0.074 0.002zM665.608 815.089l337.206-337.206-296.241-296.241-337.206 337.206z" />
<glyph unicode="&#xea15;" glyph-name="export" data-tags="export" horiz-adv-x="1139" d="M1128.268 229.662c0.439 0.548 0.841 1.133 1.279 1.681s0.987 1.279 1.425 1.974 0.841 1.352 1.243 2.047 0.767 1.206 1.096 1.864 0.694 1.425 1.023 2.12 0.658 1.316 0.914 2.010 0.512 1.389 0.767 2.12 0.548 1.462 0.767 2.193 0.365 1.425 0.548 2.12 0.402 1.535 0.548 2.302 0.256 1.608 0.365 2.449 0.219 1.352 0.292 2.047c0 1.498 0.219 3.033 0.219 4.532v0q0 2.266-0.219 4.532c0 0.694-0.183 1.389-0.292 2.047s-0.219 1.645-0.365 2.449-0.365 1.535-0.548 2.302-0.329 1.389-0.548 2.083-0.512 1.462-0.767 2.229-0.475 1.389-0.767 2.083-0.621 1.352-0.914 2.010-0.658 1.425-1.023 2.12-0.731 1.243-1.096 1.864-0.804 1.389-1.243 2.047-0.95 1.316-1.462 1.974-0.804 1.133-1.279 1.681q-1.389 1.681-2.924 3.253v0l-116.62 116.584c-8.541 9.296-20.755 15.102-34.325 15.102-25.715 0-46.56-20.846-46.56-46.56 0-13.57 5.805-25.784 15.068-34.295l0.034-0.030 36.912-36.912h-141.984v243.876c0 0.402 0 0.804 0 1.243 0 0.006 0 0.012 0 0.019 0 11.217-3.988 21.502-10.624 29.515l0.062-0.077-0.183 0.256c-0.841 1.023-1.754 2.010-2.704 2.96l-0.402 0.402c-0.402 0.402-0.804 0.841-1.206 1.243l-339.884 339.884c-0.95 0.95-1.937 1.827-2.96 2.704l-0.987 0.767c-0.731 0.585-1.498 1.169-2.266 1.718l-1.169 0.804c-0.804 0.548-1.645 1.023-2.485 1.498l-1.023 0.585q-1.681 0.914-3.435 1.645l-1.462 0.585-2.339 0.877-1.645 0.512-2.704 0.694-1.206 0.292c-1.316 0.256-2.631 0.439-3.947 0.585h-1.206c-1.096 0-2.193 0-3.289 0h-404.206c-0.001 0-0.001 0-0.002 0-25.573 0-46.331-20.617-46.559-46.137v-930.901c0-25.715 20.846-46.56 46.56-46.56v0h744.711c25.715 0 46.56 20.846 46.56 46.56v0 251.331h142.057l-36.912-36.912c-9.296-8.541-15.102-20.755-15.102-34.325 0-25.715 20.846-46.56 46.56-46.56 13.57 0 25.784 5.805 34.295 15.068l0.030 0.034 116.401 116.145q1.681 1.864 3.106 3.655zM496.486 779.762l182.404-182.404h-182.404zM744.711 7.788h-651.626v837.795h310.317v-294.785c0-25.715 20.846-46.56 46.56-46.56h294.785v-198.594h-201.737c-0.389 0.012-0.846 0.018-1.304 0.018-25.715 0-46.56-20.846-46.56-46.56s20.846-46.56 46.56-46.56c0.459 0 0.916 0.007 1.371 0.020l-0.067-0.002h201.701z" />
<glyph unicode="&#xea16;" glyph-name="file-1" data-tags="file-1" horiz-adv-x="838" d="M837.868 557.011c0 0.003 0 0.007 0 0.010 0 9.712-2.992 18.725-8.106 26.168l0.102-0.157c-0.804 1.169-1.645 2.302-2.558 3.399l-0.219 0.256c-0.841 1.023-1.754 2.010-2.668 2.96l-0.439 0.439c-0.402 0.402-0.767 0.841-1.206 1.243l-333.744 333.707c-0.95 0.95-1.974 1.864-2.997 2.668l-0.95 0.841-2.302 1.718-1.169 0.804c-0.804 0.512-1.645 1.023-2.485 1.498l-1.060 0.621c-1.133 0.585-2.266 1.133-3.435 1.645l-1.462 0.585-2.302 0.841-1.681 0.512-2.595 0.694-1.316 0.292c-1.279 0.256-2.595 0.439-3.91 0.585h-414.804c0 0-0.001 0-0.001 0-25.599 0-46.373-20.659-46.559-46.214v-930.897c0-25.715 20.846-46.56 46.56-46.56v0h744.711c25.715 0 46.56 20.846 46.56 46.56v0 594.577c0 0.402 0.037 0.767 0.037 1.206zM502.662 779.945l176.228-176.411h-176.228zM93.084 7.751v837.831h316.603v-288.718c0-25.715 20.846-46.56 46.56-46.56v0h288.718v-502.553zM574.038 193.956h-310.317c-0.389 0.012-0.846 0.018-1.304 0.018-25.715 0-46.56-20.846-46.56-46.56s20.846-46.56 46.56-46.56c0.459 0 0.916 0.007 1.371 0.020l-0.067-0.002h310.317c0.389-0.012 0.846-0.018 1.304-0.018 25.715 0 46.56 20.846 46.56 46.56s-20.846 46.56-46.56 46.56c-0.459 0-0.916-0.007-1.371-0.020l0.067 0.002zM574.038 380.125h-310.317c-0.389 0.012-0.846 0.018-1.304 0.018-25.715 0-46.56-20.846-46.56-46.56s20.846-46.56 46.56-46.56c0.459 0 0.916 0.007 1.371 0.020l-0.067-0.002h310.317c0.389-0.012 0.846-0.018 1.304-0.018 25.715 0 46.56 20.846 46.56 46.56s-20.846 46.56-46.56 46.56c-0.459 0-0.916-0.007-1.371-0.020l0.067 0.002z" />
<glyph unicode="&#xea17;" glyph-name="file" data-tags="file" horiz-adv-x="838" d="M837.868 557.011c0 0.006 0 0.012 0 0.019 0 11.217-3.988 21.502-10.624 29.515l0.062-0.077-0.183 0.256c-0.841 1.023-1.754 2.010-2.704 2.96l-0.402 0.402c-0.402 0.402-0.804 0.841-1.206 1.243l-333.78 333.707c-0.95 0.95-1.974 1.864-2.997 2.668l-0.95 0.841c-0.767 0.585-1.535 1.169-2.302 1.718l-1.169 0.767-2.485 1.535-1.023 0.585c-1.133 0.621-2.302 1.169-3.472 1.681l-1.389 0.548-2.449 0.877-1.572 0.512-2.851 0.731-1.096 0.256c-1.316 0.256-2.668 0.475-4.020 0.621h-1.133c-1.133 0-2.266 0-3.399 0h-410.163c0 0-0.001 0-0.001 0-25.612 0-46.394-20.679-46.559-46.252v-930.895c0-25.715 20.846-46.56 46.56-46.56v0h744.711c25.715 0 46.56 20.846 46.56 46.56v0 594.541c0 0.402 0.037 0.804 0.037 1.243zM502.662 779.945l176.228-176.411h-176.228zM93.084 7.751v837.831h316.603v-288.718c0-25.715 20.846-46.56 46.56-46.56v0h288.718v-502.553z" />
<glyph unicode="&#xea18;" glyph-name="folder" data-tags="folder" horiz-adv-x="1126" d="M2.613 564.074l204.824-614.352c6.989-20.512 26.082-35.005 48.562-35.015h819.177c2.043 0.015 4.038 0.146 6 0.387l-0.251-0.025 1.528 0.241c1.407 0.201 2.814 0.442 4.020 0.764l1.608 0.402c1.327 0.362 2.653 0.764 4.020 1.206l1.528 0.563c1.327 0.523 2.613 1.085 4.020 1.729l1.246 0.603c1.863 0.97 3.401 1.891 4.884 2.888l-0.18-0.114c1.691 1.146 3.145 2.256 4.536 3.438l-0.074-0.061 1.206 1.085c0.965 0.884 1.93 1.809 2.854 2.734l1.327 1.447c0.884 0.965 1.688 2.010 2.492 3.055l0.724 0.884 0.322 0.523q1.447 2.050 2.693 4.261l0.281 0.482c0.792 1.401 1.628 3.119 2.367 4.888l0.125 0.338 0.281 0.804q0.884 2.211 1.528 4.503c0 0.523 0.281 1.045 0.402 1.568 0.322 1.286 0.603 2.573 0.844 4.020 0 0.643 0.201 1.286 0.281 1.93s0.241 2.412 0.322 3.618 0 1.447 0 2.171 0 0.643 0 0.965v921.447c0 0 0 0 0 0.001 0 28.187-22.77 51.056-50.919 51.215h-409.583c-28.286 0-51.216-22.93-51.216-51.216v0-51.216h-358.392c-28.286 0-51.216-22.93-51.216-51.216v0-153.608h-153.568c-0.014 0-0.030 0-0.046 0-28.264 0-51.176-22.912-51.176-51.176 0-5.781 0.959-11.338 2.725-16.521l-0.107 0.36zM1023.96 836.275v-554.774l-105.045 315.095c-6.978 20.517-26.075 35.015-48.557 35.015-0.002 0-0.004 0-0.006 0h-563.176v102.271h358.392c28.286 0 51.216 22.93 51.216 51.216v0 51.176zM122.251 529.059h711.236l170.653-512h-711.236z" />
<glyph unicode="&#xea19;" glyph-name="font" data-tags="font" d="M943.195 938.667h-862.326c-44.663 0-80.869-36.206-80.869-80.869v0-210.107c-0.020-0.675-0.032-1.469-0.032-2.265 0-44.663 36.206-80.869 80.869-80.869s80.869 36.206 80.869 80.869c0 0.797-0.012 1.591-0.034 2.382l0.003-0.116v129.301h269.457v-700.652h-124.794c-43.677-1.263-78.603-36.971-78.603-80.837s34.926-79.575 78.487-80.834l0.116-0.003h411.39c43.677 1.263 78.603 36.971 78.603 80.837s-34.926 79.575-78.487 80.834l-0.116 0.003h-124.858v700.652h269.457v-129.301c1.263-43.677 36.971-78.603 80.837-78.603s79.575 34.926 80.834 78.487l0.003 0.116v210.107c0 44.64-36.17 80.833-80.802 80.869h-0.004z" />
<glyph unicode="&#xea1a;" glyph-name="import" data-tags="import" d="M977.44 305.643h-139.608v243.912c0 0.402 0 0.804 0 1.243 0 0.006 0 0.012 0 0.019 0 11.217-3.988 21.502-10.624 29.515l0.062-0.077-0.146 0.256c-0.841 1.023-1.754 2.010-2.704 2.96l-0.402 0.402c-0.402 0.402-0.804 0.841-1.206 1.243l-339.884 339.884c-1.060 1.023-2.047 1.9-3.070 2.704l-1.096 0.841c-0.731 0.585-1.498 1.169-2.266 1.718l-1.096 0.804c-0.804 0.512-1.645 1.023-2.485 1.498l-1.023 0.585q-1.681 0.914-3.435 1.645l-1.462 0.621-2.339 0.841-1.645 0.512-2.704 0.694-1.243 0.292c-1.316 0.256-2.631 0.439-3.947 0.585h-1.206c-1.096 0-2.193 0-3.289 0h-404.060c0 0-0.001 0-0.001 0-25.599 0-46.373-20.659-46.559-46.214v-930.897c0-25.715 20.846-46.56 46.56-46.56v0h744.711c25.715 0 46.56 20.846 46.56 46.56v0 251.331h139.645c0.389-0.012 0.846-0.018 1.304-0.018 25.715 0 46.56 20.846 46.56 46.56s-20.846 46.56-46.56 46.56c-0.459 0-0.916-0.007-1.371-0.020l0.067 0.002zM496.486 779.762l182.404-182.441h-182.404zM744.711 7.788h-651.626v837.795h310.317v-294.785c0-25.715 20.846-46.56 46.56-46.56h294.785v-198.594h-182.441l36.912 36.912c7.586 8.256 12.235 19.314 12.235 31.459 0 25.715-20.846 46.56-46.56 46.56-12.144 0-23.203-4.65-31.492-12.266l0.034 0.030-116.84-116.913c-0.877-0.914-1.754-1.827-2.558-2.814l-0.841-1.096c-0.658-0.841-1.316-1.681-1.9-2.558l-0.585-0.95c-0.621-0.987-1.243-1.937-1.791-2.96l-0.329-0.694c-0.585-1.133-1.133-2.266-1.608-3.435v-0.475c-0.512-1.243-0.987-2.522-1.352-3.655v-0.512c-0.365-1.279-0.731-2.558-0.987-3.874 0-0.402 0-0.767 0-1.169-0.183-1.096-0.402-2.229-0.512-3.362-0.15-1.392-0.235-3.007-0.235-4.641s0.085-3.249 0.252-4.84l-0.017 0.199c0-1.133 0.292-2.229 0.512-3.362 0-0.402 0-0.767 0-1.169 0.256-1.352 0.621-2.631 0.987-3.947 0 0 0-0.329 0-0.475 0.402-1.316 0.877-2.595 1.389-3.837v-0.439c0.512-1.169 1.060-2.339 1.645-3.472l0.329-0.658c0.548-1.023 1.169-2.010 1.791-2.997l0.548-0.914c0.621-0.914 1.279-1.791 1.974-2.668l0.767-1.023c0.877-1.096 1.827-2.12 2.814-3.143l0.219-0.256 116.364-116.364c8.541-9.296 20.755-15.102 34.325-15.102 25.715 0 46.56 20.846 46.56 46.56 0 13.57-5.805 25.784-15.068 34.295l-0.034 0.030-36.912 36.912h182.404z" />
<glyph unicode="&#xea1b;" glyph-name="indent" data-tags="indent" horiz-adv-x="1252" d="M1194.629 28.48h-1137.723c-30.735-0.888-55.312-26.016-55.312-56.884s24.577-55.995 55.23-56.882l0.082-0.002h1137.723c30.735 0.888 55.312 26.016 55.312 56.884s-24.577 55.995-55.23 56.882l-0.082 0.002zM1194.629 256.015h-568.839c-30.735-0.888-55.312-26.016-55.312-56.884s24.577-55.995 55.23-56.882l0.082-0.002h568.884c0.475-0.014 1.034-0.022 1.594-0.022 31.428 0 56.906 25.478 56.906 56.906s-25.478 56.906-56.906 56.906c-0.561 0-1.119-0.008-1.676-0.024l0.082 0.002zM1194.629 483.551h-568.839c-30.735-0.888-55.312-26.016-55.312-56.884s24.577-55.995 55.23-56.882l0.082-0.002h568.884c0.475-0.014 1.034-0.022 1.594-0.022 31.428 0 56.906 25.478 56.906 56.906s-25.478 56.906-56.906 56.906c-0.561 0-1.119-0.008-1.676-0.024l0.082 0.002zM56.906 824.899h1137.723c0.475-0.014 1.034-0.022 1.594-0.022 31.428 0 56.906 25.478 56.906 56.906s-25.478 56.906-56.906 56.906c-0.561 0-1.119-0.008-1.676-0.024l0.082 0.002h-1137.723c-30.735-0.888-55.312-26.016-55.312-56.884s24.577-55.995 55.23-56.882l0.082-0.002zM1194.629 711.131h-568.839c-0.475 0.014-1.034 0.022-1.594 0.022-31.428 0-56.906-25.478-56.906-56.906s25.478-56.906 56.906-56.906c0.561 0 1.119 0.008 1.676 0.024l-0.082-0.002h568.884c0.475-0.014 1.034-0.022 1.594-0.022 31.428 0 56.906 25.478 56.906 56.906s-25.478 56.906-56.906 56.906c-0.561 0-1.119-0.008-1.676-0.024l0.082 0.002zM35.109 146.58c6.435-2.743 13.922-4.337 21.78-4.337 15.707 0 29.927 6.369 40.218 16.665l227.536 227.536c10.275 10.294 16.629 24.505 16.629 40.201s-6.354 29.906-16.63 40.202l-227.535 227.624c-10.294 10.275-24.505 16.629-40.201 16.629-31.402 0-56.863-25.434-56.906-56.826v-455.12c0-0.011 0-0.024 0-0.037 0-23.555 14.323-43.766 34.735-52.396l0.373-0.14z" />
<glyph unicode="&#xea1c;" glyph-name="italic" data-tags="italic" horiz-adv-x="652" d="M605.103 938.667h-372.374c-0.389 0.012-0.846 0.018-1.304 0.018-25.715 0-46.56-20.846-46.56-46.56s20.846-46.56 46.56-46.56c0.459 0 0.916 0.007 1.371 0.020l-0.067-0.002h129.412l-167.566-837.831h-148.014c-0.389 0.012-0.846 0.018-1.304 0.018-25.715 0-46.56-20.846-46.56-46.56s20.846-46.56 46.56-46.56c0.459 0 0.916 0.007 1.371 0.020l-0.067-0.002h372.337c25.147 0.727 45.256 21.286 45.256 46.542s-20.109 45.815-45.189 46.541l-0.067 0.002h-129.412l167.566 837.831h148.014c25.147 0.727 45.256 21.286 45.256 46.542s-20.109 45.815-45.189 46.541l-0.067 0.002z" />
<glyph unicode="&#xea1d;" glyph-name="justify" data-tags="justify" horiz-adv-x="1252" d="M56.906 824.899h1137.723c0.475-0.014 1.034-0.022 1.594-0.022 31.428 0 56.906 25.478 56.906 56.906s-25.478 56.906-56.906 56.906c-0.561 0-1.119-0.008-1.676-0.024l0.082 0.002h-1137.723c-30.735-0.888-55.312-26.016-55.312-56.884s24.577-55.995 55.23-56.882l0.082-0.002zM1194.629 711.131h-1137.723c-30.735-0.888-55.312-26.016-55.312-56.884s24.577-55.995 55.23-56.882l0.082-0.002h1137.723c0.475-0.014 1.034-0.022 1.594-0.022 31.428 0 56.906 25.478 56.906 56.906s-25.478 56.906-56.906 56.906c-0.561 0-1.119-0.008-1.676-0.024l0.082 0.002zM1194.629 483.551h-1137.723c-30.735-0.888-55.312-26.016-55.312-56.884s24.577-55.995 55.23-56.882l0.082-0.002h1137.723c30.735 0.888 55.312 26.016 55.312 56.884s-24.577 55.995-55.23 56.882l-0.082 0.002zM1194.629 28.48h-1137.723c-30.735-0.888-55.312-26.016-55.312-56.884s24.577-55.995 55.23-56.882l0.082-0.002h1137.723c30.735 0.888 55.312 26.016 55.312 56.884s-24.577 55.995-55.23 56.882l-0.082 0.002zM1194.629 256.015h-1137.723c-30.735-0.888-55.312-26.016-55.312-56.884s24.577-55.995 55.23-56.882l0.082-0.002h1137.723c30.735 0.888 55.312 26.016 55.312 56.884s-24.577 55.995-55.23 56.882l-0.082 0.002z" />
<glyph unicode="&#xea1e;" glyph-name="left-align" data-tags="left-align" horiz-adv-x="1252" d="M56.906 824.899h1137.723c0.475-0.014 1.034-0.022 1.594-0.022 31.428 0 56.906 25.478 56.906 56.906s-25.478 56.906-56.906 56.906c-0.561 0-1.119-0.008-1.676-0.024l0.082 0.002h-1137.723c-30.735-0.888-55.312-26.016-55.312-56.884s24.577-55.995 55.23-56.882l0.082-0.002zM56.906 597.363h834.342c0.475-0.014 1.034-0.022 1.594-0.022 31.428 0 56.906 25.478 56.906 56.906s-25.478 56.906-56.906 56.906c-0.561 0-1.119-0.008-1.676-0.024l0.082 0.002h-834.342c-30.735-0.888-55.312-26.016-55.312-56.884s24.577-55.995 55.23-56.882l0.082-0.002zM1194.629 483.551h-1137.723c-30.735-0.888-55.312-26.016-55.312-56.884s24.577-55.995 55.23-56.882l0.082-0.002h1137.723c30.735 0.888 55.312 26.016 55.312 56.884s-24.577 55.995-55.23 56.882l-0.082 0.002zM1194.629 28.48h-1137.723c-30.735-0.888-55.312-26.016-55.312-56.884s24.577-55.995 55.23-56.882l0.082-0.002h1137.723c30.735 0.888 55.312 26.016 55.312 56.884s-24.577 55.995-55.23 56.882l-0.082 0.002zM56.906 142.247h834.342c30.735 0.888 55.312 26.016 55.312 56.884s-24.577 55.995-55.23 56.882l-0.082 0.002h-834.342c-30.735-0.888-55.312-26.016-55.312-56.884s24.577-55.995 55.23-56.882l0.082-0.002z" />
<glyph unicode="&#xea1f;" glyph-name="link2" data-tags="link" d="M551.331 230.969l-156.628-156.628c-29.58-27.524-69.375-44.417-113.116-44.417-91.814 0-166.243 74.43-166.243 166.243 0 43.741 16.893 83.536 44.511 113.218l-0.094-0.102 156.628 156.628c9.030 9.828 14.566 22.993 14.566 37.451 0 30.613-24.816 55.429-55.429 55.429-14.458 0-27.622-5.535-37.491-14.602l0.040 0.036-156.628-156.628c-47.259-49.599-76.337-116.892-76.337-190.977 0-153.015 124.043-277.058 277.058-277.058 74.149 0 141.496 29.129 191.22 76.567l-0.109-0.104 156.628 156.628c9.030 9.828 14.566 22.993 14.566 37.451 0 30.613-24.816 55.429-55.429 55.429-14.458 0-27.622-5.535-37.491-14.602l0.040 0.036zM1024.305 661.783c-0.067 152.964-124.084 276.94-277.058 276.94-76.51 0-145.777-31.013-195.915-81.154l-156.628-156.628c-11.067-10.168-17.978-24.708-17.978-40.863 0-30.613 24.816-55.429 55.429-55.429 16.155 0 30.696 6.911 40.827 17.938l0.036 0.040 156.628 156.628c29.58 27.524 69.375 44.417 113.116 44.417 91.814 0 166.243-74.43 166.243-166.243 0-43.741-16.893-83.536-44.511-113.218l0.094 0.102-156.628-156.628c-11.067-10.168-17.978-24.708-17.978-40.863 0-30.613 24.816-55.429 55.429-55.429 16.155 0 30.696 6.911 40.827 17.938l0.036 0.040 156.628 156.628c50.278 49.884 81.403 119.009 81.403 195.404 0 0.134 0 0.268 0 0.402v-0.021zM316.258 230.751c10.022-10.019 23.866-16.216 39.157-16.216s29.135 6.197 39.157 16.216l313.256 313.256c9.030 9.828 14.566 22.993 14.566 37.451 0 30.613-24.816 55.429-55.429 55.429-14.458 0-27.622-5.535-37.491-14.602l0.040 0.036-313.256-313.256c-10.009-10.027-16.198-23.869-16.198-39.157s6.189-29.13 16.198-39.158l-0.001 0.001z" />
<glyph unicode="&#xea20;" glyph-name="list-1" data-tags="list-1" horiz-adv-x="1201" d="M386.726 824.433h757.44c0.474-0.014 1.032-0.022 1.592-0.022 31.385 0 56.827 25.442 56.827 56.827s-25.442 56.827-56.827 56.827c-0.56 0-1.118-0.008-1.674-0.024l0.082 0.002h-757.44c-30.692-0.887-55.235-25.98-55.235-56.805s24.543-55.917 55.153-56.803l0.082-0.002zM1144.166 710.69h-757.44c-30.692-0.887-55.235-25.98-55.235-56.805s24.543-55.917 55.153-56.803l0.082-0.002h757.44c0.474-0.014 1.032-0.022 1.592-0.022 31.385 0 56.827 25.442 56.827 56.827s-25.442 56.827-56.827 56.827c-0.56 0-1.118-0.008-1.674-0.024l0.082 0.002zM1144.166 483.472h-757.44c-0.474 0.014-1.032 0.022-1.592 0.022-31.385 0-56.827-25.442-56.827-56.827s25.442-56.827 56.827-56.827c0.56 0 1.118 0.008 1.674 0.024l-0.082-0.002h757.44c0.474-0.014 1.032-0.022 1.592-0.022 31.385 0 56.827 25.442 56.827 56.827s-25.442 56.827-56.827 56.827c-0.56 0-1.118-0.008-1.674-0.024l0.082 0.002zM1144.166 28.99h-757.44c-30.692-0.887-55.235-25.98-55.235-56.805s24.543-55.917 55.153-56.803l0.082-0.002h757.44c30.692 0.887 55.235 25.98 55.235 56.805s-24.543 55.917-55.153 56.803l-0.082 0.002zM1144.166 256.253h-757.44c-0.474 0.014-1.032 0.022-1.592 0.022-31.385 0-56.827-25.442-56.827-56.827s25.442-56.827 56.827-56.827c0.56 0 1.118 0.008 1.674 0.024l-0.082-0.002h757.44c0.474-0.014 1.032-0.022 1.592-0.022 31.385 0 56.827 25.442 56.827 56.827s-25.442 56.827-56.827 56.827c-0.56 0-1.118-0.008-1.674-0.024l0.082 0.002zM67.488 841.428v-142.246c0.273-15.039 12.528-27.125 27.606-27.125 0.582 0 1.16 0.018 1.733 0.054l-0.079-0.004c0.403-0.021 0.875-0.033 1.35-0.033 15.135 0 27.457 12.041 27.91 27.066l0.001 0.042v212.766c-0.193 14.83-12.26 26.778-27.118 26.778-0.314 0-0.628-0.005-0.94-0.016l0.045 0.001c-9.533-0.047-17.927-4.878-22.909-12.214l-0.062-0.097-0.268-0.401-24.711-34.97c-5.227-5.702-8.55-13.225-8.918-21.516l-0.003-0.073c-0.002-0.128-0.003-0.279-0.003-0.43 0-14.811 11.662-26.898 26.304-27.58l0.061-0.002zM28.904 293.365h111.513c14.903 1.053 26.594 13.401 26.594 28.48s-11.691 27.427-26.503 28.475l-0.091 0.005h-81.003v0.446c0 8.52 19.492 22.303 35.149 33.32 31.224 21.99 69.941 49.378 69.941 96.838 0.002 0.201 0.003 0.438 0.003 0.675 0 43.283-35.088 78.371-78.371 78.371-0.989 0-1.974-0.018-2.955-0.055l0.142 0.004c-1.461 0.104-3.166 0.164-4.885 0.164-39.605 0-71.832-31.589-72.86-70.946l-0.002-0.095c-0.145-1.072-0.227-2.312-0.227-3.571 0-15.569 12.621-28.19 28.19-28.19 0.127 0 0.254 0.001 0.38 0.003h-0.019c0.458-0.026 0.993-0.041 1.532-0.041 15.337 0 27.832 12.171 28.352 27.381l0.001 0.048c0 8.386 2.141 17.842 18.913 17.842 0.484 0.038 1.048 0.060 1.617 0.060 11.972 0 21.678-9.706 21.678-21.678 0-0.241-0.004-0.481-0.012-0.72l0.001 0.035c0-17.842-23.418-34.881-46.032-51.207-27.967-20.162-59.682-42.999-59.682-78.327v-30.331c0.733-15.057 13.12-26.988 28.293-26.988 0.121 0 0.242 0.001 0.362 0.002h-0.018zM160.623 107.673c0.173 1.817 0.271 3.928 0.271 6.063 0 37.543-30.435 67.978-67.978 67.978-2.862 0-5.683-0.177-8.453-0.52l0.331 0.033c-2.526 0.317-5.449 0.498-8.414 0.498-38.712 0-70.225-30.822-71.338-69.265l-0.002-0.103c-0.126-0.99-0.198-2.135-0.198-3.297 0-15.2 12.322-27.521 27.521-27.521 0.761 0 1.514 0.031 2.259 0.091l-0.098-0.006c0.467-0.028 1.012-0.045 1.561-0.045 15.101 0 27.343 12.242 27.343 27.343 0 0.549-0.016 1.095-0.048 1.636l0.004-0.075c0 6.646 2.364 14.274 20.786 14.274 13.382 0 18.645-1.918 18.645-21.098s-4.014-20.786-19.849-20.786c-15.28-0.089-27.633-12.496-27.633-27.789 0-15.348 12.442-27.789 27.789-27.789 0.055 0 0.11 0 0.165 0h-0.008c20.92 0 25.113-8.564 25.113-22.303v-5.888c0-23.195-8.921-27.611-25.737-27.611-23.016 0-24.845 11.865-24.845 15.523 0.006 0.206 0.009 0.449 0.009 0.692 0 14.929-12.102 27.031-27.031 27.031-0.867 0-1.724-0.041-2.57-0.121l0.108 0.008c-0.588 0.046-1.273 0.072-1.965 0.072-14.781 0-26.763-11.982-26.763-26.763 0-1.094 0.066-2.173 0.193-3.233l-0.013 0.128c2.672-39.499 35.368-70.527 75.31-70.527 2.759 0 5.484 0.148 8.167 0.437l-0.333-0.029c2.058-0.195 4.45-0.306 6.867-0.306 42.692 0 77.301 34.609 77.301 77.301 0 2.605-0.129 5.18-0.381 7.719l0.026-0.321v5.888c0.036 0.853 0.057 1.854 0.057 2.86 0 19.298-7.621 36.816-20.018 49.708l0.022-0.023c8.7 13.371 13.874 29.73 13.874 47.298 0 0.998-0.017 1.993-0.050 2.983l0.004-0.144z" />
<glyph unicode="&#xea21;" glyph-name="list" data-tags="list" horiz-adv-x="1252" d="M284.442 824.899h910.187c30.735 0.888 55.312 26.016 55.312 56.884s-24.577 55.995-55.23 56.882l-0.082 0.002h-910.187c-30.735-0.888-55.312-26.016-55.312-56.884s24.577-55.995 55.23-56.882l0.082-0.002zM1194.629 711.131h-910.187c-0.475 0.014-1.034 0.022-1.594 0.022-31.428 0-56.906-25.478-56.906-56.906s25.478-56.906 56.906-56.906c0.561 0 1.119 0.008 1.676 0.024l-0.082-0.002h910.187c30.735 0.888 55.312 26.016 55.312 56.884s-24.577 55.995-55.23 56.882l-0.082 0.002zM1194.629 483.551h-910.187c-30.735-0.888-55.312-26.016-55.312-56.884s24.577-55.995 55.23-56.882l0.082-0.002h910.187c30.735 0.888 55.312 26.016 55.312 56.884s-24.577 55.995-55.23 56.882l-0.082 0.002zM1194.629 28.48h-910.187c-30.735-0.888-55.312-26.016-55.312-56.884s24.577-55.995 55.23-56.882l0.082-0.002h910.187c30.735 0.888 55.312 26.016 55.312 56.884s-24.577 55.995-55.23 56.882l-0.082 0.002zM1194.629 256.015h-910.187c-30.735-0.888-55.312-26.016-55.312-56.884s24.577-55.995 55.23-56.882l0.082-0.002h910.187c30.735 0.888 55.312 26.016 55.312 56.884s-24.577 55.995-55.23 56.882l-0.082 0.002zM56.906 938.667c-0.023 0-0.049 0-0.076 0-31.428 0-56.906-25.478-56.906-56.906s25.478-56.906 56.906-56.906c15.733 0 29.975 6.385 40.276 16.705l0.001 0.001c10.275 10.294 16.629 24.505 16.629 40.201 0 31.402-25.434 56.863-56.826 56.906h-0.004zM56.906 711.131c-0.023 0-0.049 0-0.076 0-31.428 0-56.906-25.478-56.906-56.906s25.478-56.906 56.906-56.906c15.733 0 29.975 6.385 40.276 16.705l0.001 0.001c10.275 10.294 16.629 24.505 16.629 40.201 0 31.402-25.434 56.863-56.826 56.906h-0.004zM56.906 483.551c-0.023 0-0.049 0-0.076 0-31.428 0-56.906-25.478-56.906-56.906s25.478-56.906 56.906-56.906c15.733 0 29.975 6.385 40.276 16.705l0.001 0.001c10.275 10.294 16.629 24.505 16.629 40.201 0 31.402-25.434 56.863-56.826 56.906h-0.004zM56.906 28.48c-0.023 0-0.049 0-0.076 0-31.428 0-56.906-25.478-56.906-56.906s25.478-56.906 56.906-56.906c15.733 0 29.975 6.385 40.276 16.705l0.001 0.001c10.275 10.294 16.629 24.505 16.629 40.201 0 31.402-25.434 56.863-56.826 56.906h-0.004zM56.906 256.015c-0.023 0-0.049 0-0.076 0-31.428 0-56.906-25.478-56.906-56.906s25.478-56.906 56.906-56.906c15.733 0 29.975 6.385 40.276 16.705l0.001 0.001c10.275 10.294 16.629 24.505 16.629 40.201 0 31.402-25.434 56.863-56.826 56.906h-0.004z" />
<glyph unicode="&#xea22;" glyph-name="outdent" data-tags="outdent" horiz-adv-x="1252" d="M1194.629 28.48h-1137.723c-30.735-0.888-55.312-26.016-55.312-56.884s24.577-55.995 55.23-56.882l0.082-0.002h1137.723c30.735 0.888 55.312 26.016 55.312 56.884s-24.577 55.995-55.23 56.882l-0.082 0.002zM1194.629 256.015h-568.839c-0.475 0.014-1.034 0.022-1.594 0.022-31.428 0-56.906-25.478-56.906-56.906s25.478-56.906 56.906-56.906c0.561 0 1.119 0.008 1.676 0.024l-0.082-0.002h568.884c30.735 0.888 55.312 26.016 55.312 56.884s-24.577 55.995-55.23 56.882l-0.082 0.002zM1194.629 483.551h-568.839c-0.475 0.014-1.034 0.022-1.594 0.022-31.428 0-56.906-25.478-56.906-56.906s25.478-56.906 56.906-56.906c0.561 0 1.119 0.008 1.676 0.024l-0.082-0.002h568.884c30.735 0.888 55.312 26.016 55.312 56.884s-24.577 55.995-55.23 56.882l-0.082 0.002zM56.906 824.899h1137.723c0.475-0.014 1.034-0.022 1.594-0.022 31.428 0 56.906 25.478 56.906 56.906s-25.478 56.906-56.906 56.906c-0.561 0-1.119-0.008-1.676-0.024l0.082 0.002h-1137.723c-30.735-0.888-55.312-26.016-55.312-56.884s24.577-55.995 55.23-56.882l0.082-0.002zM1194.629 711.131h-568.839c-0.475 0.014-1.034 0.022-1.594 0.022-31.428 0-56.906-25.478-56.906-56.906s25.478-56.906 56.906-56.906c0.561 0 1.119 0.008 1.676 0.024l-0.082-0.002h568.884c0.475-0.014 1.034-0.022 1.594-0.022 31.428 0 56.906 25.478 56.906 56.906s-25.478 56.906-56.906 56.906c-0.561 0-1.119-0.008-1.676-0.024l0.082 0.002zM244.241 694.47l-227.536-227.58c-10.275-10.294-16.629-24.505-16.629-40.201s6.354-29.906 16.63-40.202l227.535-227.535c10.294-10.275 24.505-16.629 40.201-16.629 31.402 0 56.863 25.434 56.906 56.826v455.075c-0.043 31.396-25.505 56.83-56.906 56.83-15.695 0-29.907-6.354-40.202-16.63l0.001 0.001z" />
<glyph unicode="&#xea23;" glyph-name="paperclip" data-tags="paperclip" horiz-adv-x="652" d="M418.897 938.667v0c-128.533 0-232.729-104.196-232.729-232.729v0-418.897c0-77.124 62.521-139.645 139.645-139.645s139.645 62.521 139.645 139.645v241.719c-0.727 25.147-21.286 45.256-46.542 45.256s-45.815-20.109-46.541-45.189l-0.002-0.067v-241.719c0.012-0.389 0.018-0.846 0.018-1.304 0-25.715-20.846-46.56-46.56-46.56s-46.56 20.846-46.56 46.56c0 0.459 0.007 0.916 0.020 1.371l-0.002-0.067v418.897c0 77.124 62.521 139.645 139.645 139.645s139.645-62.521 139.645-139.645v0-465.312c0-128.533-104.196-232.729-232.729-232.729s-232.729 104.196-232.729 232.729v0 465.312c0.012 0.389 0.018 0.846 0.018 1.304 0 25.715-20.846 46.56-46.56 46.56s-46.56-20.846-46.56-46.56c0-0.459 0.007-0.916 0.020-1.371l-0.002 0.067v-465.312c0-179.942 145.872-325.813 325.813-325.813s325.813 145.872 325.813 325.813v0 465.312c-0.146 128.487-104.276 232.604-232.753 232.729h-0.012z" />
<glyph unicode="&#xea24;" glyph-name="paragraph" data-tags="paragraph" horiz-adv-x="838" d="M791.271 938.667h-527.514c-145.669 0-263.757-118.088-263.757-263.757s118.088-263.757 263.757-263.757v0h108.617v-449.926c-0.012-0.389-0.018-0.846-0.018-1.304 0-25.715 20.846-46.56 46.56-46.56s46.56 20.846 46.56 46.56c0 0.459-0.007 0.916-0.020 1.371l0.002-0.067v884.355h93.084v-884.428c-0.012-0.389-0.018-0.846-0.018-1.304 0-25.715 20.846-46.56 46.56-46.56s46.56 20.846 46.56 46.56c0 0.459-0.007 0.916-0.020 1.371l0.002-0.067v884.428h139.645c0.389-0.012 0.846-0.018 1.304-0.018 25.715 0 46.56 20.846 46.56 46.56s-20.846 46.56-46.56 46.56c-0.459 0-0.916-0.007-1.371-0.020l0.067 0.002zM263.757 504.237c-94.26 0-170.673 76.413-170.673 170.673s76.413 170.673 170.673 170.673v0h108.617v-341.346z" />
<glyph unicode="&#xea25;" glyph-name="paste" data-tags="paste" horiz-adv-x="900" d="M899.924 302.536c-0.006 11.228-4.008 21.52-10.66 29.533l0.061-0.076v0.219q-1.279 1.572-2.741 2.997l-0.365 0.402c-0.402 0.402-0.804 0.841-1.243 1.243l-171.148 171.148v353.077c0 0 0 0 0 0 0 25.715-20.846 46.56-46.56 46.56-0.039 0-0.077 0-0.116 0h-235.537c-6.575 18.227-23.721 31.023-43.855 31.028h-62.13c-20.135-0.005-37.281-12.801-43.754-30.704l-0.102-0.324h-235.214c-25.715 0-46.56-20.846-46.56-46.56v0-775.739c0-25.715 20.846-46.56 46.56-46.56v0h139.645v-77.588c0-25.715 20.846-46.56 46.56-46.56v0h620.562c25.715 0 46.56 20.846 46.56 46.56v0 340.139c0 0.439 0.037 0.804 0.037 1.206zM558.542 531.501l182.404-182.404h-182.404zM93.084 131.9v682.508h95.789c6.575-18.227 23.721-31.023 43.855-31.028h248.225c20.135 0.005 37.281 12.801 43.754 30.704l0.102 0.324h95.789v-213.432l-75.688 75.798c-0.95 0.95-1.937 1.827-2.96 2.704l-0.987 0.767c-0.731 0.585-1.498 1.169-2.266 1.718l-1.096 0.877c-0.804 0.548-1.645 1.060-2.522 1.535l-1.133 0.548c-1.133 0.621-2.266 1.169-3.435 1.681l-1.425 0.585-2.449 0.841-1.608 0.512-2.741 0.694-1.206 0.292c-1.316 0.256-2.631 0.439-3.947 0.585h-1.206c-1.096 0-2.193 0-3.289 0h-279.947c-25.715 0-46.56-20.846-46.56-46.56v0-511.653zM279.253 7.642v589.68h186.169v-294.785c0.021-25.699 20.859-46.524 46.56-46.524 0.013 0 0.026 0 0.039 0h294.783v-248.225z" />
<glyph unicode="&#xea26;" glyph-name="preview" data-tags="preview" horiz-adv-x="1019" d="M1006.455-11.127l-89.668 89.634c21.773 32.797 34.739 73.079 34.739 116.39 0 101.934-71.825 187.093-167.626 207.627l-1.394 0.25v172.51c0 0.375 0 0.751 0 1.126-0.006 10.486-3.743 20.099-9.956 27.583l0.057-0.071v0.205c-0.819 0.99-1.673 1.911-2.56 2.799l-0.341 0.375c-0.375 0.375-0.751 0.785-1.161 1.161l-317.44 317.44c-0.887 0.887-1.809 1.707-2.765 2.526l-1.092 0.785c-0.683 0.546-1.399 1.092-2.15 1.604l-1.058 0.751c-0.751 0.512-1.536 0.956-2.321 1.434l-0.99 0.512q-1.468 0.853-3.209 1.57l-1.365 0.546-2.185 0.785-1.536 0.478-2.492 0.649-1.195 0.273c-1.195 0.239-2.423 0.41-3.652 0.546h-381.781c-23.836-0.096-43.142-19.354-43.315-43.162v-869.427c0 0 0 0 0 0 0-23.957 19.372-43.389 43.306-43.486h695.715c0.052 0 0.113 0 0.175 0 43.226 0 83.42 12.985 116.893 35.267l-0.775-0.485 89.668-89.668c7.711-7.085 18.039-11.427 29.381-11.427 24.017 0 43.486 19.469 43.486 43.486 0 11.342-4.343 21.671-11.456 29.413l0.028-0.031zM864.597 194.799c0-69.354-56.223-125.577-125.577-125.577s-125.577 56.223-125.577 125.577c0 69.354 56.223 125.577 125.577 125.577v0c69.311-0.078 125.48-56.234 125.577-125.533v-0.009zM463.701 790.255l170.359-170.394h-170.359zM86.938 851.729h289.826v-275.319c0-24.017 19.469-43.486 43.486-43.486h275.319v-130.15c-97.203-20.794-169.032-105.962-169.032-207.907 0-47.3 15.463-90.989 41.61-126.287l-0.407 0.575h-480.802z" />
<glyph unicode="&#xea28;" glyph-name="redo" data-tags="redo" horiz-adv-x="871" d="M743.598 658.265c-8.566 9.324-20.816 15.146-34.426 15.146-25.79 0-46.697-20.907-46.697-46.697 0-13.61 5.822-25.86 15.112-34.395l0.034-0.031c62.073-61.973 100.472-147.64 100.472-242.277 0-189.073-153.274-342.347-342.347-342.347s-342.347 153.274-342.347 342.347c0 104.78 47.073 198.566 121.224 261.364l0.5 0.412 21.992-110.328c4.422-21.56 23.24-37.546 45.792-37.546 16.105 0 30.306 8.153 38.701 20.557l0.105 0.165 152.627 228.427v0.183l0.257 0.44c0.733 1.136 1.43 2.273 2.089 3.482l0.293 0.586c0.586 1.173 1.173 2.346 1.686 3.665l0.22 0.66c0.477 1.21 0.916 2.383 1.283 3.665 0 0.293 0 0.586 0.22 0.843 0.33 1.173 0.66 2.346 0.88 3.665 0 0.55 0 1.136 0.257 1.686s0.33 1.869 0.403 2.822c0 1.539 0.22 3.079 0.22 4.655v0s0 0.33 0 0.513c0 1.356 0 2.749-0.22 4.105s-0.293 2.126-0.477 3.189c0 0.44 0 0.843-0.183 1.283v0c-0.257 1.393-0.623 2.712-1.026 4.069v0.403c-0.44 1.393-0.916 2.786-1.466 4.105v0.183c-0.55 1.283-1.136 2.529-1.759 3.665l-0.183 0.367c-0.586 1.1-1.246 2.163-1.906 3.226l-0.44 0.696c-0.623 0.916-1.283 1.796-1.979 2.639l-0.77 1.026c-0.66 0.806-1.393 1.576-2.126 2.346l-0.916 1.026q-1.613 1.613-3.336 3.042l-0.623 0.477c-0.99 0.806-2.016 1.576-3.042 2.273v0l-228.794 152.737c-7.283 4.921-16.26 7.856-25.923 7.856-25.79 0-46.697-20.907-46.697-46.697 0-3.208 0.323-6.34 0.94-9.366l-0.051 0.3 33.758-169.708c-118.064-79.147-194.738-212.064-194.738-362.888 0-240.512 194.973-435.485 435.485-435.485s435.485 194.973 435.485 435.485c0 120.242-48.732 229.103-127.524 307.908l0.001-0.001z" />
<glyph unicode="&#xea29;" glyph-name="right-align" data-tags="right-align" horiz-adv-x="1252" d="M1194.629 28.48h-1137.723c-30.735-0.888-55.312-26.016-55.312-56.884s24.577-55.995 55.23-56.882l0.082-0.002h1137.723c30.735 0.888 55.312 26.016 55.312 56.884s-24.577 55.995-55.23 56.882l-0.082 0.002zM1194.629 256.015h-834.342c-30.735-0.888-55.312-26.016-55.312-56.884s24.577-55.995 55.23-56.882l0.082-0.002h834.342c30.735 0.888 55.312 26.016 55.312 56.884s-24.577 55.995-55.23 56.882l-0.082 0.002zM1194.629 483.551h-1137.723c-30.735-0.888-55.312-26.016-55.312-56.884s24.577-55.995 55.23-56.882l0.082-0.002h1137.723c30.735 0.888 55.312 26.016 55.312 56.884s-24.577 55.995-55.23 56.882l-0.082 0.002zM56.906 824.899h1137.723c0.475-0.014 1.034-0.022 1.594-0.022 31.428 0 56.906 25.478 56.906 56.906s-25.478 56.906-56.906 56.906c-0.561 0-1.119-0.008-1.676-0.024l0.082 0.002h-1137.723c-30.735-0.888-55.312-26.016-55.312-56.884s24.577-55.995 55.23-56.882l0.082-0.002zM1194.629 711.131h-834.342c-0.475 0.014-1.034 0.022-1.594 0.022-31.428 0-56.906-25.478-56.906-56.906s25.478-56.906 56.906-56.906c0.561 0 1.119 0.008 1.676 0.024l-0.082-0.002h834.342c30.735 0.888 55.312 26.016 55.312 56.884s-24.577 55.995-55.23 56.882l-0.082 0.002z" />
<glyph unicode="&#xea2a;" glyph-name="save-1" data-tags="save-1" d="M1010.368 675.933l-249.102 249.102c-8.417 8.42-20.046 13.629-32.891 13.632h-681.815c-25.715 0-46.56-20.846-46.56-46.56v0-930.879c0-25.715 20.846-46.56 46.56-46.56v0h930.879c25.715 0 46.56 20.846 46.56 46.56v0 681.814c-0.007 12.845-5.215 24.473-13.632 32.892v0zM279.436 845.546h279.289v-248.225h-279.436zM93.267 845.546h92.902v-294.785c0-25.715 20.846-46.56 46.56-46.56h372.374c25.715 0 46.56 20.846 46.56 46.56v294.822h57.342l221.838-221.838v-163.327l-61.033 61.216c-8.423 8.407-20.050 13.606-32.892 13.606s-24.469-5.199-32.893-13.607l-172.536-172.536h-398.76c-25.715 0-46.56-20.846-46.56-46.56v0-294.785h-93.084zM279.289 256.013h258.969l-121.225-121.371c-8.417-8.419-13.625-20.047-13.632-32.891v-94.145h-124.259zM496.486 7.788v74.811l340.432 340.322 74.847-74.847-340.286-340.286zM791.271 7.788h-88.297l227.941 227.941v-227.941z" />
<glyph unicode="&#xea2b;" glyph-name="save" data-tags="save" d="M1010.368 675.933l-249.102 249.102c-8.419 8.417-20.047 13.625-32.891 13.632h-681.815c-25.715 0-46.56-20.846-46.56-46.56v0-930.879c0-25.715 20.846-46.56 46.56-46.56v0h930.879c25.715 0 46.56 20.846 46.56 46.56v0 681.814c-0.003 12.846-5.212 24.475-13.632 32.892v0zM279.436 845.583h279.289v-248.261h-279.436zM279.436 7.788v248.225h465.275v-248.225zM931.062 7.788h-93.23v294.749c0 25.715-20.846 46.56-46.56 46.56v0h-558.542c-25.715 0-46.56-20.846-46.56-46.56v0-294.785h-93.084v837.831h93.084v-294.785c0-25.715 20.846-46.56 46.56-46.56v0h372.374c25.715 0 46.56 20.846 46.56 46.56v294.785h57.342l221.838-221.838z" />
<glyph unicode="&#xea2d;" glyph-name="strikethrough" data-tags="strikethrough" horiz-adv-x="1165" d="M1112.248 479.628h-644.393c-97.51 0-176.558 79.048-176.558 176.558s79.048 176.558 176.558 176.558v0h459.039c28.616 0.827 51.498 24.222 51.498 52.961s-22.882 52.134-51.422 52.959l-0.076 0.002h-459.039c-155.977-0.028-282.41-126.479-282.41-282.46 0-67.067 23.374-128.675 62.421-177.121l-0.423 0.542h-194.461c-0.442 0.013-0.962 0.021-1.484 0.021-29.261 0-52.982-23.721-52.982-52.982s23.721-52.982 52.982-52.982c0.522 0 1.042 0.008 1.56 0.023l-0.076-0.002h644.601c97.51 0 176.558-79.048 176.558-176.558s-79.048-176.558-176.558-176.558v0h-459.247c-28.616-0.827-51.498-24.222-51.498-52.961s22.882-52.134 51.422-52.959l0.076-0.002h459.039c0.114 0 0.249 0 0.384 0 155.883 0 282.252 126.368 282.252 282.252 0 67.17-23.463 128.86-62.641 177.321l0.418-0.534h194.628c0.442-0.013 0.962-0.021 1.484-0.021 29.261 0 52.982 23.721 52.982 52.982s-23.721 52.982-52.982 52.982c-0.522 0-1.042-0.008-1.56-0.023l0.076 0.002z" />
<glyph unicode="&#xea2e;" glyph-name="subscript" data-tags="subscript" d="M1001.651-37.205h-68.329v0.377c0 7.199 16.47 18.844 29.699 28.153 26.382 18.58 59.096 41.721 59.096 81.822 0.002 0.169 0.002 0.37 0.002 0.57 0 36.572-29.647 66.219-66.219 66.219-0.836 0-1.668-0.015-2.496-0.046l0.12 0.004c-1.235 0.088-2.675 0.138-4.128 0.138-33.464 0-60.694-26.691-61.562-59.945l-0.002-0.080c-0.192-1.155-0.301-2.486-0.301-3.843 0-13.613 11.035-24.648 24.648-24.648s24.648 11.035 24.648 24.648c0 0.026 0 0.052 0 0.078v-0.004c0 7.085 1.809 15.075 15.98 15.075 0.409 0.032 0.885 0.051 1.366 0.051 10.116 0 18.317-8.201 18.317-18.317 0-0.203-0.003-0.406-0.010-0.608l0.001 0.029c0-15.075-19.787-29.473-38.895-43.267-23.631-17.035-50.427-36.332-50.427-66.181v-25.628c0.58-12.756 11.062-22.879 23.909-22.879 0.101 0 0.202 0.001 0.302 0.002h94.207c12.592 0.89 22.47 11.323 22.47 24.064s-9.878 23.174-22.394 24.060l-0.077 0.004zM782.303 927.888c-8.195 6.714-18.782 10.783-30.319 10.783-14.973 0-28.346-6.854-37.152-17.596l-0.067-0.085-314.775-386.346-314.775 386.346c-8.869 11.286-22.52 18.468-37.847 18.468-26.518 0-48.015-21.497-48.015-48.015 0-11.892 4.323-22.773 11.483-31.16l-0.055 0.067 327.288-401.685-327.288-401.648c-6.027-7.938-9.655-17.984-9.655-28.879 0-26.518 21.497-48.015 48.015-48.015 14.351 0 27.231 6.296 36.030 16.276l0.045 0.052 314.775 386.346 314.813-386.346c8.862-10.382 21.961-16.922 36.588-16.922 26.518 0 48.015 21.497 48.015 48.015 0 11.191-3.828 21.487-10.246 29.651l0.078-0.103-327.326 401.572 327.288 401.685c6.714 8.195 10.783 18.782 10.783 30.319 0 14.973-6.854 28.346-17.596 37.152l-0.085 0.067z" />
<glyph unicode="&#xea2f;" glyph-name="superscript" data-tags="superscript" d="M1001.688 761.637h-68.332v0.377c0 7.199 16.471 18.845 29.7 28.154 26.383 18.581 59.098 41.723 59.098 81.825 0.002 0.181 0.003 0.394 0.003 0.608 0 36.573-29.648 66.221-66.221 66.221-0.836 0-1.668-0.015-2.497-0.046l0.12 0.004c-1.235 0.088-2.675 0.138-4.128 0.138-33.465 0-60.696-26.692-61.564-59.947l-0.002-0.081c-0.192-1.155-0.301-2.486-0.301-3.843 0-13.613 11.036-24.649 24.649-24.649s24.649 11.036 24.649 24.649c0 0.026 0 0.052 0 0.078v-0.004c0 7.086 1.809 15.076 15.981 15.076 0.409 0.032 0.885 0.051 1.366 0.051 10.116 0 18.317-8.201 18.317-18.317 0-0.203-0.003-0.406-0.010-0.608l0.001 0.029c0-15.076-19.787-29.474-38.896-43.268-23.632-17.036-50.429-36.333-50.429-66.184v-25.629c0.58-12.757 11.063-22.88 23.91-22.88 0.101 0 0.202 0.001 0.302 0.002h94.21c12.593 0.89 22.471 11.324 22.471 24.065s-9.879 23.175-22.394 24.061l-0.077 0.004zM782.332 863.89c-8.195 6.714-18.782 10.784-30.32 10.784-14.974 0-28.347-6.854-37.153-17.596l-0.067-0.085-314.787-386.36-314.787 386.36c-8.863 10.382-21.962 16.923-36.589 16.923-26.519 0-48.017-21.498-48.017-48.017 0-11.191 3.828-21.488 10.247-29.652l-0.078 0.103 327.3-401.7-327.3-401.7c-6.162-7.992-9.875-18.147-9.875-29.169 0-26.519 21.498-48.017 48.017-48.017 14.469 0 27.443 6.4 36.246 16.523l0.050 0.058 314.787 386.323 314.825-386.323c8.87-11.286 22.52-18.468 37.848-18.468 26.519 0 48.017 21.498 48.017 48.017 0 11.892-4.323 22.774-11.483 31.161l0.055-0.067-327.338 401.662 327.3 401.7c6.714 8.195 10.784 18.782 10.784 30.32 0 14.974-6.854 28.347-17.596 37.153l-0.085 0.067z" />
<glyph unicode="&#xea30;" glyph-name="table-1" data-tags="table-1" horiz-adv-x="1252" d="M1194.682 938.667h-1137.773c-31.43 0-56.909-25.479-56.909-56.909v0-910.227c0-31.43 25.479-56.909 56.909-56.909v0h1137.773c31.43 0 56.909 25.479 56.909 56.909v0 910.227c0 31.43-25.479 56.909-56.909 56.909v0zM568.909 597.304v-227.546h-455.136v227.546zM682.682 597.304h455.136v-227.546h-455.136zM113.773 255.985h455.136v-227.546h-455.136zM682.682 28.44v227.546h455.136v-227.546z" />
<glyph unicode="&#xea31;" glyph-name="table" data-tags="table" horiz-adv-x="1252" d="M1194.682 938.667h-1137.773c-31.43 0-56.909-25.479-56.909-56.909v0-910.227c0-31.43 25.479-56.909 56.909-56.909v0h1137.773c31.43 0 56.909 25.479 56.909 56.909v0 910.227c0 31.43-25.479 56.909-56.909 56.909v0zM493.060 255.985v113.773h265.47v-113.773zM758.53 142.213v-113.773h-265.47v113.773zM758.53 597.349v-113.773h-265.47v113.728zM872.303 597.349h265.47v-113.773h-265.47zM379.243 597.349v-113.773h-265.47v113.728zM113.773 369.758h265.515v-113.773h-265.515zM872.303 369.758h265.47v-113.773h-265.47zM113.773 142.213h265.515v-113.773h-265.515zM872.303 28.44v113.773h265.47v-113.773z" />
<glyph unicode="&#xea32;" glyph-name="text-height" data-tags="text-height" d="M943.411 338.944l-28.023-30.037v260.335l28.023-30.037c8.558-9.494 20.899-15.436 34.628-15.436 25.713 0 46.558 20.845 46.558 46.558 0 12.6-5.005 24.030-13.135 32.412l0.011-0.012-109.158 116.873c-0.614 0.649-1.263 1.263-1.946 1.877l-1.434 1.331c-0.717 0.614-1.468 1.161-2.185 1.741l-1.434 1.092c-0.853 0.58-1.741 1.126-2.662 1.673l-1.229 0.751c-1.092 0.614-2.219 1.161-3.413 1.673l-0.785 0.375c-1.365 0.58-2.765 1.126-4.198 1.57v0c-4.218 1.388-9.072 2.189-14.114 2.189s-9.896-0.801-14.444-2.282l0.33 0.093c-1.749-0.563-3.151-1.107-4.516-1.717l0.283 0.113-0.751-0.341c-1.161-0.512-2.287-1.058-3.413-1.673l-1.195-0.717c-0.922-0.546-1.809-1.092-2.697-1.707l-1.434-1.058c-0.751-0.58-1.502-1.126-2.219-1.741l-1.434-1.297c-0.649-0.614-1.331-1.229-1.946-1.877l-0.546-0.512-108.612-116.361c-7.402-8.21-11.93-19.137-11.93-31.122 0-25.713 20.845-46.558 46.558-46.558 13.114 0 24.961 5.422 33.423 14.146l0.011 0.012 28.023 30.037v-260.403l-28.023 30.037c-8.473 8.736-20.321 14.157-33.434 14.157-25.713 0-46.558-20.845-46.558-46.558 0-11.984 4.528-22.911 11.967-31.163l-0.037 0.042 109.193-116.941c0.58-0.58 1.195-1.161 1.775-1.741l1.604-1.434c0.649-0.546 1.331-1.092 2.048-1.604l1.604-1.195c0.785-0.546 1.638-1.058 2.458-1.536l1.434-0.853c1.024-0.58 2.048-1.058 3.14-1.536l0.99-0.478c1.297-0.546 2.594-1.058 3.959-1.502h0.41c4.126-1.357 8.877-2.154 13.809-2.184h0.288c0.020 0 0.043 0 0.067 0 6.665 0 13.002 1.407 18.73 3.94l-0.296-0.117 0.512 0.239c1.229 0.546 2.458 1.126 3.618 1.809l1.024 0.614c0.99 0.58 1.946 1.161 2.867 1.809l1.263 0.956c0.819 0.614 1.604 1.229 2.389 1.877l1.297 1.161c0.717 0.649 1.434 1.331 2.082 2.014l0.478 0.478 108.612 116.361c7.402 8.21 11.93 19.137 11.93 31.122 0 25.713-20.845 46.558-46.558 46.558-13.114 0-24.961-5.422-33.423-14.146l-0.011-0.012zM543.027 733.867h-496.469c-25.713 0-46.558-20.845-46.558-46.558v0-120.969c-0.011-0.375-0.017-0.817-0.017-1.261 0-25.713 20.845-46.558 46.558-46.558s46.558 20.845 46.558 46.558c0 0.443-0.006 0.885-0.018 1.325l0.001-0.065v74.445h155.17v-403.388h-71.885c-25.165-0.703-45.297-21.271-45.297-46.541s20.132-45.838 45.233-46.539l0.065-0.001h236.851c25.165 0.703 45.297 21.271 45.297 46.541s-20.132 45.838-45.233 46.539l-0.065 0.001h-71.885v403.388h155.136v-74.445c-0.011-0.375-0.017-0.817-0.017-1.261 0-25.713 20.845-46.558 46.558-46.558s46.558 20.845 46.558 46.558c0 0.443-0.006 0.885-0.018 1.325l0.001-0.065v120.969c0 25.701-20.825 46.538-46.522 46.558h-0.002z" />
<glyph unicode="&#xea33;" glyph-name="text-width" data-tags="text-width" horiz-adv-x="590" d="M577.181 38.268l1.316 1.462c0.585 0.694 1.169 1.462 1.718 2.193l1.096 1.462c0.585 0.841 1.133 1.754 1.681 2.631l0.767 1.243c0.585 1.096 1.133 2.193 1.645 3.326l0.365 0.804c0.585 1.352 1.096 2.778 1.572 4.203v0c1.387 4.216 2.187 9.068 2.187 14.107s-0.8 9.891-2.28 14.437l0.093-0.33c-0.439 1.425-0.987 2.814-1.572 4.203l-0.365 0.804c-0.512 1.133-1.060 2.266-1.645 3.326-0.219 0.439-0.512 0.841-0.767 1.243s-1.060 1.791-1.681 2.631-0.731 0.95-1.096 1.462-1.133 1.498-1.718 2.193l-1.316 1.462c-0.621 0.658-1.206 1.316-1.864 1.937l-0.512 0.548-116.364 108.617c-8.006 6.692-18.411 10.756-29.764 10.756-25.715 0-46.56-20.846-46.56-46.56 0-12.364 4.819-23.602 12.682-31.939l-0.022 0.023 30.041-28.031h-260.285l30.041 28.031c8.579 8.45 13.894 20.193 13.894 33.178 0 25.715-20.846 46.56-46.56 46.56-11.857 0-22.679-4.432-30.899-11.73l0.048 0.042-116.949-109.311c-0.585-0.585-1.133-1.169-1.718-1.754s-0.987-1.060-1.462-1.608-1.060-1.352-1.572-2.010-0.841-1.060-1.206-1.608-1.060-1.608-1.535-2.449-0.585-0.95-0.877-1.425-1.060-2.047-1.535-3.106l-0.475-1.023c-0.548-1.279-1.023-2.595-1.498-3.947v-0.402c-1.349-4.126-2.136-8.875-2.156-13.805v-0.010s0 0 0-0.256v0c-0.001-0.123-0.002-0.268-0.002-0.414 0-6.516 1.345-12.718 3.772-18.343l-0.115 0.301 0.292-0.585c0.548-1.206 1.133-2.412 1.754-3.655l0.658-1.060c0.585-0.95 1.133-1.9 1.791-2.814l0.987-1.316c0.585-0.804 1.206-1.572 1.827-2.339l1.206-1.352c0.658-0.694 1.279-1.389 1.974-2.047l0.475-0.475 116.364-108.617c8.172-7.256 18.994-11.688 30.851-11.688 25.715 0 46.56 20.846 46.56 46.56 0 12.984-5.315 24.727-13.888 33.172l-0.006 0.006-30.041 28.031h260.322l-30.041-28.031c-8.579-8.45-13.894-20.193-13.894-33.178 0-25.715 20.846-46.56 46.56-46.56 11.857 0 22.679 4.432 30.899 11.73l-0.048-0.042 116.876 109.165c0.731 0.658 1.352 1.316 1.974 1.974zM46.56 724.577c25.715 0 46.56 20.846 46.56 46.56v0 74.445h155.14v-403.402h-71.887c-0.389 0.012-0.846 0.018-1.304 0.018-25.715 0-46.56-20.846-46.56-46.56s20.846-46.56 46.56-46.56c0.459 0 0.916 0.007 1.371 0.020l-0.067-0.002h236.859c0.389-0.012 0.846-0.018 1.304-0.018 25.715 0 46.56 20.846 46.56 46.56s-20.846 46.56-46.56 46.56c-0.459 0-0.916-0.007-1.371-0.020l0.067 0.002h-71.924v403.402h155.14v-74.445c-0.012-0.389-0.018-0.846-0.018-1.304 0-25.715 20.846-46.56 46.56-46.56s46.56 20.846 46.56 46.56c0 0.459-0.007 0.916-0.020 1.371l0.002-0.067v120.969c0 25.702-20.825 46.54-46.522 46.56h-496.451c-25.715 0-46.56-20.846-46.56-46.56v0-120.969c0-25.715 20.846-46.56 46.56-46.56v0z" />
<glyph unicode="&#xea34;" glyph-name="underline" data-tags="underline" horiz-adv-x="649" d="M597.347 938.667c-28.286 0-51.216-22.93-51.216-51.216v0-443.698c0-122.535-99.334-221.869-221.869-221.869s-221.869 99.334-221.869 221.869v443.698c-0.8 27.662-23.415 49.781-51.196 49.781s-50.396-22.12-51.194-49.708l-0.002-0.074v-443.698c0-179.085 145.177-324.261 324.261-324.261s324.261 145.177 324.261 324.261v0 443.698c0 28.272-22.907 51.193-51.174 51.216h-0.002zM597.347 17.059h-546.131c-27.662-0.8-49.781-23.415-49.781-51.196s22.12-50.396 49.708-51.194l0.074-0.002h546.131c27.662 0.8 49.781 23.415 49.781 51.196s-22.12 50.396-49.708 51.194l-0.074 0.002z" />
<glyph unicode="&#xea35;" glyph-name="undo" data-tags="undo" horiz-adv-x="871" d="M676.411 713.136l33.758 169.708c0.581 2.764 0.914 5.94 0.914 9.193 0 25.79-20.907 46.697-46.697 46.697-9.72 0-18.746-2.97-26.221-8.051l0.163 0.104-228.647-152.773c-1.063-0.696-2.053-1.466-3.042-2.273l-0.623-0.477q-1.759-1.43-3.336-3.042l-1.173-1.063c-0.733-0.77-1.43-1.539-2.126-2.346l-0.77-1.026c-0.66-0.88-1.356-1.723-1.979-2.639l-0.44-0.696c-0.696-1.063-1.32-2.089-1.906-3.226l-0.183-0.367c-0.66-1.21-1.246-2.456-1.759-3.665v-0.183c-0.55-1.356-1.063-2.712-1.466-4.105v-0.403c-0.403-1.32-0.733-2.676-1.026-4.069v0c0-0.44 0-0.843-0.183-1.283 0-1.063-0.367-2.126-0.477-3.189s-0.183-2.749-0.22-4.105c0 0 0-0.33 0-0.513v0c0-1.539 0-3.116 0.22-4.655 0-0.953 0.257-1.869 0.403-2.822s0-1.136 0.257-1.686c0.257-1.21 0.55-2.383 0.88-3.665 0-0.293 0-0.586 0.22-0.843 0.367-1.246 0.843-2.456 1.283-3.665l0.22-0.66c0.513-1.21 1.063-2.383 1.686-3.665l0.293-0.586c0.623-1.21 1.356-2.346 2.089-3.482l0.257-0.44v-0.183l152.627-228.427c8.5-12.568 22.7-20.721 38.806-20.721 22.551 0 41.369 15.986 45.74 37.244l0.052 0.302 21.992 110.328c74.49-63.16 121.453-156.81 121.453-261.429 0-188.932-153.159-342.091-342.091-342.091s-342.091 153.159-342.091 342.091c0 94.483 38.304 180.019 100.23 241.928l0.001 0.001c7.608 8.28 12.271 19.371 12.271 31.551 0 25.79-20.907 46.697-46.697 46.697-12.18 0-23.271-4.663-31.585-12.302l0.034 0.031c-78.876-78.852-127.664-187.798-127.664-308.139 0-240.633 195.072-435.705 435.705-435.705s435.705 195.072 435.705 435.705c0 150.908-76.72 283.898-193.284 362.092l-1.569 0.991z" />
</font>
</defs>
</svg>
